BRANDNEW DAYS
Purple Days

EXTREME

Level: 8
BPM: 132
Notes: 701

1
口口口口 |----|
口口口口 |----|
口口口口 |----|
口口口口 |----|
2
②③③② |①--②|
口①①口 |--③-|
口②②口
口①①口

口口口口
⑤口口口
口口口口 |④---|
④⑤口④ |--⑤-|
3
②③①② |①--②|
口口口④ |--③-|
口①③口 |④---|
口口④口 |----|
4
③①②③ |①--②|
口口口口 |--③-|
①②口口 |④---|
④口口④ |----|
5
③口口③ |①--②|
②①①② |--③-|
⑤②②⑤ |④---|
④①①④ |⑤---|
6
②③③② |①--②|
口①①口 |--③-|
口②②口 |④---|
④①①④ |----|
7
口口口口 |①--②|
③②①③ |--③-|
口口口口 |④---|
④①②④ |----|
8
③①②③ |①--②|
口口口口 |--③-|
①口口② |④---|
④口口④ |----|
9
③口口③ |①--②|
口②①口 |--③-|
口①②口
口口口口

口口④口
⑦口⑤⑥
⑥⑤口⑦ |④-⑤-|
口④口口 |⑥-⑦-|
10
①③③② |①--②|
口口口口 |--③-|
口④④口 |④---|
②②①① |----|
11
①口口④ |①--②|
⑤①④② |--③-|
③⑤②口 |④⑤--|
⑥③口⑥ |⑥---|
12
口口①口 |①--②|
口②⑤① |--③-|
②④③⑤ |④⑤--|
④⑥⑥③ |⑥---|
13
口口口口 |①---|
①口口① |②---|
口口口口
②口口②

口口口口
④口口④
③口口③ |③---|
口口口口 |④---|
14
①①①① |①---|
口口②口 |--②-|
口②③口 |③---|
口③口口 |----|
15
④⑤①② |①--②|
口⑦⑥① |--③-|
③④⑤② |④-⑤-|
③口⑦⑥ |⑥-⑦-|
16
④③口口 |①--②|
②口口口 |--③-|
①⑤⑥③ |④---|
②①口④ |--⑤⑥|
17
③口口④ |①②--|
口⑤⑥口 |③④--|
⑦口口⑧ |⑤-⑥-|
⑨①②⑩ |⑦⑧⑨⑩|
18
⑤①⑬⑭ |①②③④|
⑦③⑥② |⑤⑥⑦⑧|
口⑧④⑨ |⑨-⑩⑪|
口⑩⑪⑫ |⑫-⑬⑭|
19
⑫⑭⑮⑬ |①-②③|
①口②③ |④⑤⑥⑦|
⑧④⑤⑨ |⑧⑨⑩⑪|
⑥⑩⑪⑦ |⑫⑬⑭⑮|
20
口口口口 |①---|
②①①② |②---|
②①①②
口口口口

口口口口
口⑥⑦口
口口口口 |③-④⑤|
④③③⑤ |⑥-⑦-|
21
口口口口 |①-②③|
④口⑤④ |----|
①⑤②③ |④--⑤|
⑥口口⑥ |--⑥-|
22
⑬①②口 |①②③④|
⑧⑨⑩③ |⑤⑥⑦⑧|
⑦⑫⑪④ |⑨⑩⑪⑫|
口⑥⑤口 |--⑬-|
23
口口①② |①②③④|
③⑦⑩④ |⑤⑥⑦⑧|
⑤⑪⑧⑥ |⑨⑩⑪⑫|
口⑨⑫口 |----|
24
①⑤口口 |①②③④|
口口⑥② |⑤⑥⑦⑧|
③⑦口口
口口⑧④

口口⑪⑫
⑨⑩口⑭
⑭口⑬口 |⑨⑩⑪⑫|
口⑬口口 |⑬-⑭-|
25
①②⑤口 |①-②③|
口④③口 |--④-|
口口口⑤ |⑤---|
④口口① |----|
26
③口口口 |①--②|
口①②口 |--③-|
口②①③
①口③②

口口口④
口口口口
④口口口 |④---|
口④口⑤ |--⑤-|
27
③③③③ |①--②|
口②②② |--③-|
口口①①
口口口口

口口口口
口口口口
④④⑤⑤ |④---|
口⑤④口 |⑤---|
28
④③①② |①--②|
①②④③ |--③-|
⑤口口口 |④---|
口⑤口口 |--⑤-|
29
口口口口 |①---|
口口②口 |--②③|
口③①口 |④---|
口⑤④① |--⑤-|
30
④④③③ |①--②|
②④③① |--③-|
②②①① |④---|
口口口口 |----|
31
口口口口 |①---|
①③②① |----|
口口口④ |②---|
②口④③ |③-④-|
32
口口口② |①-②-|
口③②① |--③④|
④口①口
口口口口

⑥口口口
口口⑦口
口口口⑧ |⑤-⑥-|
口⑤口口 |--⑦⑧|
33
⑦口⑥⑤ |①-②-|
④口口口 |③-④-|
口⑦⑤⑥ |⑤---|
②口①③ |⑥-⑦-|
34
口口口口 |①--②|
口③①② |--③-|
②④③口 |④---|
①口④口 |----|
35
口①①口 |①--②|
②口③口 |--③-|
口③④② |④---|
口④口口 |----|
36
口口口口 |①--②|
①口口① |--③-|
口③③② |④---|
②④④口 |----|
37
口口口口 |①---|
口④④口 |②---|
口③③口 |③---|
①②②① |④---|
38
①①①① |①--②|
③③口② |--③-|
②口③口
口口口口

口口口⑥
口口口口
口④口⑥ |④⑤--|
⑤口④④ |⑥---|
39
①①①口 |①--②|
口②②② |--③-|
③③口口
口口口口

⑦⑧⑦⑧
口口口口
口口④④ |④⑤⑥-|
⑤⑥⑥⑦ |⑦-⑧-|
40
⑥口口⑥ |①--②|
①③②① |--③-|
②口⑤③ |④⑤--|
②④④③ |⑥---|
41
口口口口 |①---|
①④④① |②---|
口③③口 |③---|
口②②口 |④---|
42
①①①① |①--②|
③③口② |--③-|
②口③口
口口口口

口口口⑥
口口口口
口④口⑥ |④⑤--|
⑤口④④ |⑥---|
43
①①①口 |①--②|
口②②② |--③-|
③③口口
口口口口

⑦⑧⑦⑧
口口口口
口口④④ |④⑤⑥-|
⑤⑥⑥⑦ |⑦-⑧-|
44
口口口口 |①--②|
①③②① |--③-|
②口口③
②口口③

⑥口口⑥
⑦口口⑧
口口⑤口 |④⑤--|
口④④口 |⑥-⑦⑧|
45
口①②口 |①②--|
口③④口 |③④-⑤|
口口口口
口口口⑤

⑥⑦⑧口
⑨口口⑩
⑪口口⑫ |-⑥⑦⑧|
口口口口 |⑨⑩⑪⑫|
46
②③③② |①--②|
口①①口 |--③-|
口②②口
口①①口

口口口口
⑤口口口
口口口口 |④---|
④⑤口④ |--⑤-|
47
②③①② |①--②|
口口口④ |--③-|
口①③口 |④---|
口口④口 |----|
48
③①②③ |①--②|
口口口口 |--③-|
①②口口
口口口口

口口口口
口口口口
⑤口口⑤ |④---|
④口口④ |--⑤-|
49
③口口③ |①--②|
②①①② |--③-|
⑤②②⑤ |④---|
④①①④ |⑤---|
50
②③③② |①--②|
口①①口 |--③-|
⑤②②⑤ |④---|
④①①④ |--⑤-|
51
口口口口 |①--②|
③②①③ |--③-|
口口口口 |④---|
④①②④ |----|
52
③①②③ |①--②|
口口口口 |--③-|
①②口口 |④---|
④口口④ |----|
53
③口口③ |①--②|
口②①口 |--③-|
口①②口
口口口口

口口④口
⑦口⑤⑥
⑥⑤口⑦ |④-⑤-|
口④口口 |⑥-⑦-|
54
⑥①⑦② |①②③④|
口③口口 |⑤-⑥⑦|
口口④口
⑤口口口

口⑫口⑬
⑧口⑨口
口⑩口口 |⑧⑨⑩⑪|
口口口⑪ |--⑫⑬|
55
⑦口⑧口 |①②③④|
口①口② |⑤⑥⑦⑧|
③口④口
⑤口⑥口

口口口口
⑨口⑩⑭
⑬⑪口⑫ |⑨⑩⑪⑫|
口口口口 |--⑬⑭|
56
口①口② |①②③④|
③口④口 |⑤⑥⑦⑧|
口⑤口⑥
⑦口⑧口

⑪口口口
口⑨⑫⑩
⑩⑫⑨口 |⑨-⑩-|
口口口⑪ |⑪-⑫-|
57
口②③口 |①-②③|
①口口口 |--④-|
④口口口
口口口口

⑥⑦⑦⑥
口⑤⑤口
口⑥⑥⑤ |⑤--⑥|
口⑤⑤口 |--⑦-|
58
⑩⑪口口 |①②③④|
⑦③⑥② |⑤-⑥-|
口⑧⑨④ |⑦-⑧⑨|
①⑤口① |--⑩⑪|
59
口口①② |①②③④|
⑥③④⑤ |⑤-⑥⑦|
口口⑦口
口口口口

口口口口
口口⑫口
口⑪口口 |⑧-⑨⑩|
⑧口⑨⑩ |--⑪⑫|
60
⑤②⑥① |①-②-|
口④口⑧ |--③④|
⑦口③口 |⑤-⑥-|
口口口口 |--⑦⑧|
61
⑤①⑤② |①-②-|
④⑥口⑥ |--③④|
⑦口⑦口 |⑤-⑥-|
口⑧③⑧ |⑦-⑧-|
62
③口②口 |①---|
口②口③ |--②-|
口①口① |③---|
①口①口 |----|


不确定度: 0

最終更新:2013年03月23日 20:36