Beastie Starter
GUHROOVY

EXTREME

Level: 10
BPM: 190
Notes: 1000

1
口口口口 |----|
口口口口 |----|
口口口口 |----|
口口口口 |----|
2
①③口① |①--②|
②④口口 |--③④|
口⑤口口 |⑤--⑥|
⑥⑦口口 |--⑦-|
3
口③口口 |①--②|
②④口口 |--③④|
①⑤口⑦ |⑤--⑥|
⑥⑧口口 |⑦-⑧-|
4
①③口① |①--②|
②④口口 |--③④|
口⑤口口 |⑤--⑥|
⑥⑦口口 |--⑦-|
5
口③口口 |①--②|
②④口口 |--③④|
①⑤口口 |⑤--⑥|
⑥⑦口口 |--⑦-|
6
①③口① |①--②|
②④口口 |--③④|
口⑤口口 |⑤--⑥|
⑥⑦口口 |--⑦-|
7
口③口口 |①--②|
②④口口 |--③④|
①⑤口口 |⑤--⑥|
⑥⑦口口 |--⑦-|
8
①③口① |①--②|
②④口口 |--③④|
口⑤口口 |⑤--⑥|
⑥⑦口口 |--⑦-|
9
口④口口 |--①-|
口口④口 |②-③-|
②口③① |④---|
口⑤③⑤ |⑤---|
10
①⑤②① |①-②③|
③⑥⑤④ |④-⑤⑥|
口⑦⑧⑦ |⑦-⑧⑨|
⑨⑪⑪⑩ |⑩-⑪-|
11
口⑤②① |①-②③|
③⑥⑤④ |④-⑤⑥|
①⑦⑧⑦ |⑦-⑧⑨|
⑨⑪⑪⑩ |⑩-⑪-|
12
①⑤②① |①-②③|
③⑥⑤④ |④-⑤⑥|
口⑦⑧⑦ |⑦-⑧⑨|
⑨⑪⑪⑩ |⑩-⑪-|
13
口⑤②① |①-②③|
③⑥⑤④ |④-⑤⑥|
①⑦⑧⑦ |⑦-⑧-|
⑨⑩⑪口 |-⑨⑩⑪|
14
①⑤④① |①-②③|
③⑥⑤② |④-⑤⑥|
口⑦⑩⑦ |⑦-⑧⑨|
⑨⑪⑪⑧ |⑩-⑪-|
15
口⑤④① |①-②③|
③⑥⑤② |④-⑤⑥|
①⑦⑩⑦ |⑦-⑧⑨|
⑨⑪⑪⑧ |⑩-⑪-|
16
①⑤④① |①-②③|
③⑥⑤② |④-⑤⑥|
口⑦⑩⑦ |⑦-⑧⑨|
⑨⑪⑪⑧ |⑩-⑪-|
17
口⑤④① |①-②③|
③⑥⑤② |④-⑤⑥|
①⑦⑧口 |⑦--⑧|
⑧⑨⑨⑦ |--⑨-|
18
①⑤⑦① |①-②③|
③⑥⑧② |④-⑤⑥|
口⑦⑩④ |⑦-⑧⑨|
⑨⑪⑪⑤ |⑩-⑪-|
19
口⑤⑦① |①-②③|
③⑥⑧② |④-⑤⑥|
①⑦⑩④ |⑦-⑧⑨|
⑨⑪⑪⑤ |⑩-⑪-|
20
①⑤⑦① |①-②③|
③⑥⑧② |④-⑤⑥|
口⑦⑩④ |⑦-⑧⑨|
⑨⑪⑪⑤ |⑩-⑪-|
21
口⑤口① |①-②③|
③⑥⑦② |④-⑤⑥|
①⑦⑧④ |⑦-⑧-|
⑨⑩⑪⑤ |⑨⑩⑪-|
22
①⑤②① |①-②③|
③⑥⑤④ |④-⑤⑥|
口⑦⑧⑦ |⑦-⑧⑨|
⑨⑪⑪⑩ |⑩-⑪-|
23
口⑤②① |①-②③|
③⑥⑤④ |④-⑤⑥|
①⑦⑧⑦ |⑦-⑧⑨|
⑨⑪⑪⑩ |⑩-⑪-|
24
口⑨①① |①-②-|
口口③② |③-④-|
④④⑦口 |--⑤-|
⑤⑧⑥⑤ |⑥⑦⑧⑨|
25
口口①① |①---|
口口口口 |②-③-|
②③口②
口口口口

口口⑦口
口⑤⑤④
口口口口 |④-⑤⑥|
口口口⑥ |--⑦-|
26
⑨⑪口① |①-②③|
⑥⑦口⑦ |④⑤⑥-|
②⑩⑧④ |⑦⑧⑨-|
①③⑤口 |⑩-⑪-|
27
⑨⑪口① |①-②③|
⑥⑦口⑦ |④⑤⑥-|
②⑩⑧④ |⑦⑧⑨-|
①③⑤口 |⑩-⑪-|
28
⑨⑪口① |①-②③|
⑥⑦口⑦ |④⑤⑥-|
②⑩⑧④ |⑦⑧⑨-|
①③⑤口 |⑩-⑪-|
29
口⑨口① |①-②③|
⑥口⑧⑦ |④⑤⑥-|
②⑩口④ |⑦---|
①③⑤⑪ |⑧⑨⑩⑪|
30
⑨⑪口① |①-②③|
⑥⑦口⑦ |④⑤⑥-|
②⑩⑧④ |⑦⑧⑨-|
①③⑤口 |⑩-⑪-|
31
⑨⑪⑫① |①-②③|
⑥⑦口⑦ |④⑤⑥-|
②⑩⑧④ |⑦⑧⑨-|
①③⑤口 |⑩-⑪⑫|
32
⑨⑪⑫① |①-②③|
⑥⑦口⑦ |④⑤⑥-|
②⑩⑧④ |⑦⑧⑨-|
①③⑤口 |⑩-⑪⑫|
33
口口口① |①---|
②③口口 |②---|
口⑤⑤口 |③-④-|
①④口② |--⑤-|
34
②②⑤① |①-②-|
⑥④①⑤ |③-④-|
⑧口口⑦ |⑤-⑥-|
④⑥③③ |⑦-⑧-|
35
②②⑤① |①-②-|
⑥④①⑤ |③-④-|
⑦口⑨⑧ |⑤-⑥-|
④⑥③③ |⑦-⑧⑨|
36
②②⑤① |①-②-|
⑥④①⑤ |③-④-|
⑦口口⑧ |⑤-⑥-|
④⑥③③ |⑦-⑧-|
37
②②⑤① |①-②-|
⑥④①⑤ |③-④-|
⑩⑨⑧⑦ |⑤-⑥-|
④⑥③③ |⑦⑧⑨⑩|
38
②②⑤① |①-②-|
⑥④①⑤ |③-④-|
⑧口口⑦ |⑤-⑥-|
④⑥③③ |⑦-⑧-|
39
②②⑤① |①-②-|
⑥④①⑤ |③-④-|
⑦⑧⑨⑩ |⑤-⑥-|
④⑥③③ |----⑦⑧⑨⑩|
40
②②⑥① |①-②-|
⑦④①⑤ |③-④-|
⑨⑩⑪⑫ |⑤⑥⑦⑧|
④⑧③③ |⑨⑩⑪⑫|
41
①②口① |①-②-|
口③③口 |③-④-|
口口口口
④口②④

⑪口⑥口
⑧口口⑤
口⑨⑨⑩ |⑤⑥⑦⑧|
口⑦口口 |⑨⑩⑪-|
42
口②口口 |①-②-|
口口④口 |③-④-|
口口口口
③口①③

口口口口
口⑤口⑤
⑦口⑥⑦ |⑤-⑥-|
口口⑧口 |⑦-⑧-|
43
③口①③ |①-②-|
口口⑥④ |③-④-|
⑦⑤⑤⑦ |⑤-⑥-|
口⑨⑧② |⑦-⑧⑨|
44
⑤口②⑤ |①-②-|
③口⑥③ |③-④-|
口⑦④⑧ |⑤-⑥-|
①口⑦口 |⑦-⑧-|
45
口①①口 |①-②-|
③口口③ |③-④-|
口口④口
口口口②

口⑨⑧⑤
口⑦⑦口
口口口口 |⑤-⑥-|
⑤口⑥口 |⑦-⑧⑨|
46
①口口⑦ |①-②-|
口口⑥② |③-④-|
口③③④ |⑤-⑥-|
⑦⑤⑤⑧ |⑦-⑧-|
47
口⑤⑤⑥ |①-②-|
①⑨⑧① |③-④-|
③口②③ |⑤-⑥-|
⑦口④⑦ |⑦-⑧⑨|
48
⑤⑨⑧⑤ |①-②-|
①口口口 |③-④-|
③口②③ |⑤-⑥-|
⑦⑥④⑦ |⑦-⑧⑨|
49
⑨⑪口⑨ |①②③④|
④③②① |⑤⑥⑦⑧|
⑧⑦⑥⑤ |⑨--⑩|
口⑩⑩口 |--⑪-|
50
口口口口 |①---|
口②口① |②---|
口③④口 |③---|
①口口口 |④---|
51
②口口① |①---|
口口口口 |②---|
口口口口 |③---|
③口口④ |④---|
52
口口口口 |①---|
口②①口 |②---|
口③④口 |③---|
口口口口 |④---|
53
②口口① |①---|
口口口口 |②---|
口口口口 |③---|
③口口④ |④---|
54
口口口口 |①-②-|
④③①② |③-④-|
⑥⑤⑦⑧ |⑤-⑥-|
口口口口 |⑦-⑧-|
55
③④②① |①-②-|
口口口口 |③-④-|
口口口口 |⑤-⑥-|
⑤⑥⑧⑦ |⑦-⑧-|
56
口口口口 |①-②-|
④③①② |③-④-|
⑥⑤⑦⑧ |⑤-⑥-|
口口口口 |⑦-⑧-|
57
③④②① |①-②-|
口口口口 |③-④-|
口口口口 |⑤-⑥-|
⑤⑥⑧⑦ |⑦-⑧-|
58
⑤口⑦⑤ |①-②-|
①③②① |③-④-|
①口④① |⑤-⑥-|
口口口⑥ |--⑦-|
59
⑤口⑦⑤ |①-②-|
①③②① |③-④-|
口口④口 |⑤-⑥-|
口口⑥口 |--⑦-|
60
⑤口⑦⑤ |①-②-|
①③②① |③-④-|
口口④口 |⑤-⑥-|
口口口⑥ |--⑦-|
61
⑤口⑦⑤ |①-②-|
①③②① |③-④-|
口口④口 |⑤-⑥-|
口口⑥口 |--⑦-|
62
⑤口⑦⑤ |①-②-|
①③②① |③-④-|
①口④① |⑤-⑥-|
口口口⑥ |--⑦-|
63
⑤口⑦⑤ |①-②-|
①③②① |③-④-|
口口④口 |⑤-⑥-|
口口⑥口 |--⑦-|
64
④口⑥④ |①-②-|
口口②口 |--③-|
口口③口 |④-⑤-|
①口⑤① |--⑥-|
65
③口口③ |①---|
④口口④ |②---|
②口口② |③---|
①④④① |④---|
66
口②②⑤ |①-②-|
⑦⑤④⑦ |③-④-|
④口⑥③ |⑤-⑥-|
①口⑧① |⑦-⑧-|
67
⑧②②⑤ |①-②-|
⑦⑤④⑦ |③-④-|
④口⑥③ |⑤-⑥-|
①⑨⑧① |⑦-⑧⑨|
68
口②②⑤ |①-②-|
⑦⑤④⑦ |③-④-|
④口⑥③ |⑤-⑥-|
①口⑧① |⑦-⑧-|
69
⑨②②⑤ |①-②-|
⑦⑤④⑦ |③-④-|
④⑧⑥③ |⑤-⑥-|
①⑩⑨① |⑦⑧⑨⑩|
70
口②②⑤ |①-②-|
⑦⑤④⑦ |③-④-|
④口⑥③ |⑤-⑥-|
①口⑧① |⑦-⑧-|
71
⑧②②⑤ |①-②-|
⑦⑤④⑦ |③-④-|
④口⑥③ |⑤-⑥-|
①⑨⑧① |⑦-⑧⑨|
72
⑧②②⑤ |①-②-|
⑦⑤④⑦ |③-④-|
④口⑥③ |⑤-⑥-|
①⑨⑧① |⑦-⑧⑨|
73
口②②⑤ |①-②-|
⑦⑤④⑦ |③-④-|
④口⑥③ |⑤-⑥-|
①口⑧① |⑦-⑧-|
74
口②②⑤ |①-②-|
⑦⑤④⑦ |③-④-|
④口⑥③ |⑤-⑥-|
①口⑧① |⑦-⑧-|
75
⑧②②⑤ |①-②-|
⑦⑤④⑦ |③-④-|
④口⑥③ |⑤-⑥-|
①⑨⑧① |⑦-⑧⑨|
76
口②②⑤ |①-②-|
⑦⑤④⑦ |③-④-|
④口⑥③ |⑤-⑥-|
①口⑧① |⑦-⑧-|
77
⑨②②⑤ |①-②-|
⑦⑤④⑦ |③-④-|
④⑧⑥③ |⑤-⑥-|
①⑩⑨① |⑦⑧⑨⑩|
78
口②②⑤ |①-②-|
⑦⑤④⑦ |③-④-|
④口⑥③ |⑤-⑥-|
①口⑧① |⑦-⑧-|
79
⑧②②⑤ |①-②-|
⑦⑤④⑦ |③-④-|
④口⑥③ |⑤-⑥-|
①⑨⑧① |⑦-⑧⑨|
80
口⑤④口 |①-②-|
⑧⑦③口 |③④⑤-|
⑪⑩⑥⑨ |⑥⑦⑧-|
②口口① |⑨⑩⑪-|
81
②⑥⑦③ |①②③④|
⑫⑪⑩⑨ |⑤⑥⑦⑧|
⑯⑮⑭⑬ |⑨⑩⑪⑫|
④⑧⑤① |⑬⑭⑮⑯|
82
②口⑥口 |①-②-|
⑤口④④ |--③-|
口口口⑥ |④---|
⑤③③① |⑤-⑥-|
83
口口⑥口 |①-②-|
口⑤④④ |--③-|
②⑤口⑥ |④---|
口③③① |⑤-⑥-|
84
⑤口⑥口 |①-②-|
口口④④ |--③-|
②⑤口⑥ |④---|
口③③① |⑤-⑥-|
85
⑤口口⑤ |①-②-|
口②④④ |--③-|
口口口口 |④---|
口③③① |⑤---|
86
口口口口 |①---|
口口口口 |----|
①①①① |----|
口口口口 |----|


不确定度: 0

タグ:

+ タグ編集
  • タグ:

このサイトはreCAPTCHAによって保護されており、Googleの プライバシーポリシー利用規約 が適用されます。

最終更新:2012年11月27日 22:05