B・M・W
SNAIL RAMP

EXTREME

Level: 8
BPM: 194
Notes: 631

全程BPM在194附近飄忽不定
1
口口口① |----|
口口口口 |----|
口口口口 |----|
①口口口 |①---|
2
①③②口 |①---|
③④④② |--②-|
②④④③ |--③-|
口②③① |--④-|
3
①口口① |①---|
口④口③ |--②-|
③口④口 |--③-|
口②口② |--④-|
4
口②③① |①---|
②④④③ |--②-|
③④④② |--③-|
①③②口 |--④-|
5
①口口① |①---|
③口④口 |--②-|
口④口③ |--③-|
②口②口 |--④-|
6
①③②口 |①---|
③④④② |--②-|
②④④③ |--③-|
口②③① |--④-|
7
①口口① |①---|
口④口③ |--②-|
③口④口 |--③-|
口②口② |--④-|
8
口②③① |①---|
②④④③ |--②-|
③④④② |--③-|
①③②口 |--④-|
9
①⑤④① |①---|
③⑦⑥口 |②-③-|
口⑨⑧③ |--④⑤|
②口口② |⑥⑦⑧⑨|
10
②口口① |①-②-|
④⑦⑦③ |③-④-|
⑥口口⑥ |--⑤-|
口⑤⑤口 |⑥-⑦-|
11
口口口口 |----|
口③口口 |----|
口口②口 |--①-|
口①口口 |②-③-|
12
⑥②①⑥ |①---|
②口⑤① |②---|
口④口口 |③-④-|
口口③口 |⑤-⑥-|
13
口口口口 |①-②-|
④④口③ |③-④-|
⑤⑤②口 |--⑤-|
口口口① |----|
14
①口口② |①-②-|
③⑦⑦④ |③-④-|
⑥口口⑥ |--⑤-|
口⑤⑤口 |⑥-⑦-|
15
口口①① |----|
口口④口 |--①-|
口③口口 |--②-|
口口②口 |③-④-|
16
口②口口 |①---|
②①口口 |②---|
①口口口 |----|
口口口口 |----|
17
④⑥⑤口 |①-②-|
⑥③口⑤ |③-④-|
②口口口 |--⑤-|
口①口口 |⑥---|
18
口口口③ |①-②-|
口②口口 |③---|
④④口口 |④---|
口口⑤① |--⑤-|
19
⑦①⑥口 |--①-|
口⑤口② |②---|
口口④口 |③④⑤⑥|
口③口口 |--⑦-|
20
口口口① |①---|
②④③② |②---|
口口口口 |③-④-|
口⑤⑤口 |--⑤-|
21
口①口口 |①-②-|
口口口② |③-④-|
口③口口
口口口④

口⑥⑥口
口口⑤口
口口⑤口 |⑤---|
口口口口 |--⑥-|
22
口口口口 |①-②-|
②口口① |③-④-|
④⑦⑦③ |⑤-⑥-|
⑥口口⑤ |--⑦-|
23
口①①口 |①---|
②口口② |②---|
③口口③ |③---|
④口口④ |④---|
24
口口口⑤ |①---|
口④③口 |②---|
口口口口 |③-④-|
口②①口 |--⑤-|
25
①⑥⑥口 |①-②-|
③口口② |③-④-|
⑤口口④ |⑤-⑥-|
口口⑦口 |--⑦-|
26
口口口口 |①-②-|
⑥口④⑤ |③-④-|
⑥③②⑤ |--⑤-|
口①口口 |--⑥-|
27
口③③口 |--①-|
口口口口 |②---|
⑥②②口 |③-④-|
④①①⑤ |⑤-⑥-|
28
口④④口 |①---|
口⑤⑤口 |②-③-|
口③③① |--④-|
口②②口 |⑤---|
29
②口口② |----|
②口口② |①---|
③口口口 |②---|
①①①① |--③-|
30
④口口④ |①-②-|
⑥⑤⑤⑥ |③-④-|
口②③① |--⑤-|
口口口口 |--⑥-|
31
口口口口 |--①-|
口⑥口口 |②-③-|
⑤③③口 |--④-|
②④口① |⑤-⑥-|
32
①口④④ |①---|
口口⑤⑤ |②-③-|
口口③③ |--④-|
口口②② |⑤---|
33
②②②② |----|
口口口③ |①---|
①口口① |②---|
①口口① |--③-|
34
口口口口 |①-②-|
①口口⑥ |③-④-|
口③②⑥ |--⑤-|
口⑤口④ |--⑥-|
35
口④⑤口 |--①-|
①⑥⑦口 |②---|
①⑧⑨口 |③-④⑤|
②③③② |⑥⑦⑧⑨|
36
①口口② |①-②-|
③⑦⑦④ |③-④-|
⑥口口⑥ |--⑤-|
口⑤⑤口 |⑥-⑦-|
37
②口口② |----|
口口⑤口 |①---|
口④口口 |②-③-|
①口③① |④-⑤-|
38
⑥口口⑥ |①---|
①⑤口② |②---|
①口④② |③-④-|
口③口口 |⑤-⑥-|
39
口口口口 |①-②-|
③口④④ |③-④-|
口②⑤⑤ |--⑤-|
口口口① |----|
40
②口口① |①-②-|
④⑦⑦③ |③-④-|
⑥口口⑥ |--⑤-|
口⑤⑤口 |⑥-⑦-|
41
①①口口 |----|
口④口口 |--①-|
口口③口 |--②-|
口②口口 |③-④-|
42
④口②口 |①---|
口口①② |②---|
③口口① |③---|
口口口口 |④---|
43
口⑥⑤④ |①-②-|
⑥口③⑤ |③-④-|
口口口② |--⑤-|
口口①口 |⑥---|
44
口口③② |①---|
口口②③ |②---|
口口口口 |③---|
口①①口 |----|
45
③③口口 |①---|
口口口口 |②---|
①②口口 |③---|
②①口口 |----|
46
口口口口 |①---|
口③口② |②-③-|
口⑤④口 |--④-|
口口①口 |--⑤-|
47
①口口① |①---|
②口口② |②---|
③口口③ |③---|
④口口④ |④---|
48
②③口口 |①---|
③②口口 |②---|
口①①口 |③---|
口口口口 |----|
49
口口④④ |①-②-|
口口③口 |③---|
口口口② |④---|
口口①口 |----|
50
⑥口口口 |①-②-|
②口③口 |③-④-|
口口口⑤ |--⑤-|
④口①⑤ |--⑥-|
51
口①①口 |--①-|
口②②口 |②---|
口口口口 |③---|
口③③口 |----|
52
口③②口 |①---|
⑤口口④ |②-③-|
口①①口 |--④-|
口口口口 |--⑤-|
53
口口口口 |--①-|
口⑥⑤口 |②-③-|
口④③口 |④-⑤-|
口②①口 |⑥---|
54
①口口① |①---|
口口口口 |②-③-|
⑤口口④ |--④-|
口③②口 |--⑤-|
55
口②①口 |--①-|
口④③口 |②-③-|
口⑥⑤口 |④-⑤-|
口口口口 |⑥---|
56
⑤③口④ |①---|
口口②⑥ |②-③-|
口口口口 |--④-|
口①①口 |⑤-⑥-|
57
口口口口 |①-②-|
①口口口 |③-④-|
③口口② |⑤-⑥-|
⑤⑦⑥④ |⑦---|
58
①口口① |①-②-|
口③②口 |③-④-|
口⑤④口 |⑤-⑥-|
口⑦⑥⑧ |⑦-⑧-|
59
口⑤④口 |①-②-|
口⑦⑥口 |③---|
③⑨⑧② |④⑤⑥⑦|
①⑪⑩口 |⑧⑨⑩⑪|
60
②⑤⑤① |①-②-|
④⑥⑥③ |③-④-|
口⑦⑦口 |--⑤-|
口口口口 |⑥-⑦-|
61
②口口② |----|
口⑤口口 |①---|
口口④口 |②-③-|
①③口① |④-⑤-|
62
⑥②①⑥ |①---|
②口⑤① |②---|
口④口口 |③-④-|
口口③口 |⑤-⑥-|
63
口口口口 |①-②-|
④④口③ |③-④-|
⑤⑤②口 |--⑤-|
口口口① |----|
64
①口口② |①-②-|
③⑦⑦④ |③-④-|
⑥口口⑥ |--⑤-|
口⑤⑤口 |⑥-⑦-|
65
口口①① |----|
口口④口 |--①-|
口③口口 |--②-|
口口②口 |③-④-|
66
口②口④ |①---|
②①口口 |②---|
①口口③ |③---|
口口口口 |④---|
67
④⑥⑤口 |①-②-|
⑥③口⑤ |③-④-|
②口口口 |--⑤-|
口①口口 |⑥---|
68
口口③② |①---|
口口②③ |②---|
口口口口 |③---|
口①①口 |----|
69
③③口口 |①---|
口口口口 |②---|
①②口口 |③---|
②①口口 |----|
70
口口口口 |①---|
口③口② |②-③-|
口⑤④口 |--④-|
口口①口 |--⑤-|
71
①口口① |①---|
②口口② |②---|
③口口③ |③---|
④口口④ |④---|
72
②③口口 |①---|
③②口口 |②---|
口①①口 |③---|
口口口口 |----|
73
口口④④ |①-②-|
口口③口 |③---|
口口口② |④---|
口口①口 |----|
74
⑥口口口 |①-②-|
②口③口 |③-④-|
口口口⑤ |--⑤-|
④口①⑤ |--⑥-|
75
口①①口 |--①-|
口②②口 |②---|
口口口口 |③---|
口③③口 |----|
76
⑤④口⑥ |①-②-|
③⑤⑥口 |③-④-|
口②口口 |--⑤-|
①口口口 |--⑥-|
77
口口①口 |--①-|
口口口① |--②-|
口口⑤④ |③-④-|
口口③② |⑤---|
78
④⑤口口 |①-②-|
⑤③口口 |③-④-|
②口⑥口 |--⑤-|
口①口⑥ |--⑥-|
79
口口②② |--①-|
口口③③ |②---|
口口口① |③---|
口口①口 |----|
80
⑤④口⑥ |①-②-|
③⑤⑥口 |③-④-|
口②口口 |--⑤-|
①口口口 |--⑥-|
81
口口①口 |--①-|
口口口① |--②-|
口口⑤④ |③-④-|
口口③② |⑤---|
82
④⑤口口 |①-②-|
⑤③口口 |③-④-|
②口⑥口 |--⑤-|
口①口⑥ |--⑥-|
83
口口②② |--①-|
口口③③ |②---|
口口口① |③---|
口口①口 |----|


不确定度: 0

最終更新:2013年03月23日 16:01