アルクアラウンド
サカナクション

BASIC

Level: 4
BPM: 132
Notes: 245

1
口口口口 |----|
口口口口 |----|
口口口口 |----|
口口口口 |----|
2
口口口口 |①---|
①口②口 |----|
口口口口 |②---|
口口口口 |----|
3
口口口口 |①---|
口口口① |----|
口口口口 |----|
口口口口 |----|
4
口口口口 |①---|
口口口口 |----|
口②口① |②---|
口口口口 |----|
5
口口口口 |①---|
口口口口 |----|
①口口口 |----|
口口口口 |----|
6
①②口口 |①---|
口③④口 |②---|
口口口口 |③---|
口口口口 |④---|
7
口口口口 |①---|
口口口口 |②---|
口口①② |----|
口口口口 |----|
8
口口②① |①---|
口④③口 |②---|
口口口口 |③---|
口口口口 |④---|
9
口口口口 |①---|
口口口口 |----|
①①口口 |----|
口口口口 |----|
10
口口口口 |----|
口口口口 |----|
口口口口 |----|
口口口口 |----|
11
口口口口 |----|
口口口口 |----|
口①①口 |----|
口口口口 |①---|
12
②③口口 |①---|
口①①口 |----|
口口口口 |②---|
口口口口 |③---|
13
口口①口 |①---|
口口③② |----|
口口口口 |②---|
口口口口 |③---|
14
口口口口 |①---|
口口口口 |②---|
①口③口 |③---|
口②口口 |----|
15
口口口口 |①---|
口口口口 |②---|
口③口① |③---|
④口②口 |④---|
16
口口③② |①---|
口①①口 |----|
口口口口 |②---|
口口口口 |③---|
17
口①口口 |①---|
②③口口 |----|
口口口口 |②---|
口口口口 |③---|
18
口口口口 |①---|
口口口口 |②---|
口③口① |③---|
口口②口 |----|
19
口口口口 |①---|
口口口口 |②---|
①口③口 |③---|
口②口④ |④---|
20
口口口口 |①---|
①口②③ |②-③-|
口⑤④口 |--④-|
口口口口 |--⑤-|
21
口口口口 |--①-|
口②③④ |--②-|
①⑤口口 |③-④-|
口口口口 |--⑤-|
22
口口口口 |①---|
口⑤④口 |②-③-|
①口②③ |--④-|
口口口口 |--⑤-|
23
口口口口 |--①-|
①口口口 |②-③-|
②③④⑤ |④-⑤-|
口口口⑥ |⑥---|
24
口口口口 |①---|
③②口① |②-③-|
口④⑤口 |--④-|
口口口口 |--⑤-|
25
口口口口 |--①-|
④③②口 |--②-|
口口⑤① |③-④-|
口口口口 |--⑤-|
26
口口口口 |①---|
口④⑤口 |②-③-|
③②口① |--④-|
口口口口 |--⑤-|
27
口口口口 |--①-|
口口口① |②-③-|
⑤④③② |④-⑤-|
⑥口口口 |⑥---|
28
口口口口 |①---|
①口②③ |②-③-|
口⑤④口 |--④-|
口口口口 |--⑤-|
29
口口口口 |--①-|
口②③④ |--②-|
①⑤口口 |③-④-|
口口口口 |--⑤-|
30
口口口口 |①---|
口⑤④口 |②-③-|
①口②③ |--④-|
口口口口 |--⑤-|
31
口口口口 |--①-|
①口口口 |②-③-|
②③④⑤ |④-⑤-|
口口口⑥ |⑥---|
32
口口口口 |①---|
③②口① |②-③-|
口④⑤口 |--④-|
口口口口 |--⑤-|
33
口口口口 |--①-|
⑤④③② |②-③-|
口口口① |④-⑤-|
口口口口 |----|
34
口口口口 |①-②-|
口⑤⑥⑦ |③-④-|
④③②① |--⑤-|
口口口口 |⑥-⑦-|
35
口①②口 |----|
口③④口 |--①-|
口⑤口口 |②-③-|
口口口口 |④-⑤-|
36
口口口口 |①---|
②口口② |----|
口口①口 |②---|
口口口口 |----|
37
口口口口 |----|
①口口① |----|
口口口口 |①---|
口口口口 |----|
38
口④口口 |①---|
口口③口 |②---|
口②口口 |③---|
口口①口 |④---|
39
①②③① |①---|
口④⑤口 |----|
口口口口 |②-③-|
口口口口 |④-⑤-|
40
口口口口 |①-②-|
⑤口口⑤ |③-④-|
口①②口 |⑤---|
口③④口 |----|
41
口口口口 |----|
①口口① |----|
口口口口 |①---|
口口口口 |----|
42
口口④口 |①---|
口③口口 |②---|
口口②口 |③---|
口①口口 |④---|
43
①口口① |①---|
口口口口 |----|
口口口口 |----|
口口口口 |----|
44
口口口口 |----|
口口口口 |----|
口口口口 |----|
口口口口 |----|
45
口口口口 |----|
口口口口 |----|
口口口口 |①---|
①口口① |----|
46
口口口口 |①---|
①①①① |----|
口②②口 |②---|
口口口口 |----|
47
①①①① |①---|
口②口口 |----|
口口③口 |②---|
口口口口 |③---|
48
口口口口 |①---|
口口①口 |②---|
③②口口 |③---|
口④口口 |④---|
49
口口口口 |①---|
口口口口 |②---|
口口①③ |③---|
口口④② |④---|
50
口口口口 |①---|
②口口口 |----|
口①口口 |②---|
口口口口 |----|
51
口口口口 |①---|
口口口① |----|
口口②口 |②---|
口口口口 |----|
52
口口口口 |①---|
②口口② |----|
口①口口 |②---|
口口口口 |----|
53
口口口口 |①---|
口①①口 |----|
②口口② |②---|
口口口口 |----|
54
口口口口 |①---|
口口口口 |----|
口口口口 |②---|
②①①② |----|
55
口口口口 |①---|
①①①① |----|
口②②口 |②---|
口口口口 |----|
56
①①①① |①---|
口②口口 |----|
口口③口 |②---|
口口口口 |③---|
57
口口口口 |①---|
口口①口 |②---|
口②口口 |③---|
口④③口 |④---|
58
口口口口 |①---|
②口口口 |----|
口口①口 |②---|
口口口口 |----|
59
口口口口 |①---|
口口口① |----|
口口②口 |②---|
口③口口 |③---|
60
口口口口 |①---|
口③③口 |②---|
口①口口 |③---|
口口②口 |----|
61
口口口口 |①---|
②口口② |----|
口①①口 |②---|
口口口口 |----|
62
①口口① |①---|
口口②口 |--②-|
口③口口 |----|
口口口口 |③---|
63
口口口口 |--①-|
口②③口 |----|
口口①口 |②---|
口口口口 |--③-|
64
口口口口 |----|
口口口口 |①---|
口①②口 |--②-|
口口口口 |----|
65
①②口口 |①---|
口口③口 |--②-|
口口口口 |----|
口口口口 |③---|
66
口口口口 |--①-|
口口口① |----|
口口口口 |②---|
口口③② |--③-|
67
口口口口 |----|
口口口口 |①---|
②①口口 |--②-|
口口口口 |----|


不确定度: 0

最終更新:2013年03月23日 13:50