アルクアラウンド
サカナクション

ADVANCED

Level: 6
BPM: 132
Notes: 500

1
口口口口 |----|
口口口口 |----|
口口口口 |----|
口口口口 |----|
2
①①①① |①---|
②口口口 |②-③-|
口口口③ |--④-|
④⑤④⑤ |--⑤-|
3
口②②口 |--①-|
口①①口 |----|
口口口口 |----|
口口口口 |--②-|
4
①口口① |①---|
口口口② |②-③-|
③口口口 |--④-|
⑤④⑤④ |--⑤-|
5
口口口① |----|
口口口口 |----|
口口口口 |----|
口口口口 |--①-|
6
口口①口 |①---|
口⑤口口 |②-③-|
口口⑤口 |--④-|
②③口④ |--⑤-|
7
口口口口 |--①-|
口口①口 |----|
口①口口 |----|
口口口口 |----|
8
①②③口 |①-②-|
口口口口 |③-④-|
口口口口
口口口④

⑦⑦⑦⑦
口口口口
口口⑥口 |--⑤-|
口⑤口口 |⑥-⑦-|
9
口口口口 |①---|
①②③④ |②---|
口口口口 |③---|
口口口口 |④---|
10
口口口口 |①---|
口口口口 |②---|
①②③④ |③---|
口口口口 |④---|
11
口②口① |①-②-|
④口③口 |③-④-|
口⑤口⑥ |⑤-⑥-|
⑦⑦⑦⑦ |⑦---|
12
①①①① |①---|
口③口口 |----|
②口④口 |②-③-|
口口口⑤ |④-⑤-|
13
口口口口 |----|
口口②口 |----|
口口口① |①---|
口③口口 |②-③-|
14
口④口口 |①-②-|
口②⑥口 |③-④-|
口口③口 |⑤-⑥-|
口⑤①口 |----|
15
口①口口 |①-②-|
口③口口 |③-④-|
口口②口
口口④口

口⑧⑤口
口口⑦口
口⑥口口 |⑤-⑥-|
口口口口 |⑦-⑧-|
16
①口口① |①---|
口③口口 |----|
②口④口 |②-③-|
口口口⑤ |④-⑤-|
17
口口口口 |----|
口口②口 |----|
口口口① |①---|
口③口口 |②-③-|
18
口④口口 |①-②-|
口②⑥口 |③-④-|
口口③口 |⑤-⑥-|
口⑤①口 |----|
19
口①口口 |①-②-|
口③口口 |③-④-|
口口②口
口口④口

口⑥⑤口
口⑧⑦口
口口口口 |⑤-⑥-|
口口口口 |⑦-⑧-|
20
①口口① |①---|
口口口② |②-③-|
⑤⑤口③ |--④-|
④④口口 |--⑤-|
21
口⑤⑤口 |--①-|
①①②口 |--②-|
口口③口 |③-④-|
口口④口 |--⑤-|
22
①口口① |①---|
②口口口 |②-③-|
③口⑤⑤ |--④-|
口口④④ |--⑤-|
23
口②口口 |--①-|
口③①① |②-③-|
⑤口⑥口 |④-⑤-|
口④口口 |⑥---|
24
①口口① |①---|
口口口② |②-③-|
⑤⑤口③ |--④-|
④④口口 |--⑤-|
25
口⑤⑤口 |--①-|
①①②口 |--②-|
口口③口 |③-④-|
口口④口 |--⑤-|
26
①口口① |①---|
②口口口 |②-③-|
③口⑤⑤ |--④-|
口口④④ |--⑤-|
27
口②口口 |--①-|
口③①① |②-③-|
⑤口⑥口 |④-⑤-|
口④口口 |⑥---|
28
①口口① |①---|
口口口② |②-③-|
⑤⑤口③ |--④-|
④④口口 |--⑤-|
29
口⑤⑤口 |--①-|
①①②口 |--②-|
口口③口 |③-④-|
口口④口 |--⑤-|
30
①口口① |①---|
②口口口 |②-③-|
③口⑤⑤ |--④-|
口口④④ |--⑤-|
31
口②口口 |--①-|
口③①① |②-③-|
⑤口⑥口 |④-⑤-|
口④口口 |⑥---|
32
④④口口 |①---|
⑤⑤口③ |②-③-|
口口口② |--④-|
①口口① |--⑤-|
33
口口⑤口 |--①-|
口口④口 |②-③-|
①①③口 |④-⑤-|
口口②口 |----|
34
⑦⑦⑦⑦ |①-②-|
⑥④④⑥ |③-④-|
③⑤⑤③ |--⑤-|
①②②① |⑥-⑦-|
35
口③④口 |----|
口④③口 |--①-|
⑤①②⑤ |②-③-|
口②①口 |④-⑤-|
36
①口口① |①---|
口口口口 |②-③-|
⑤⑥⑥⑤ |④-⑤-|
口④③② |⑥---|
37
①②③④ |--①-|
⑤⑥⑥⑤ |②-③-|
口口口口 |④-⑤-|
口口口口 |⑥---|
38
④口口口 |①---|
口口口③ |②---|
②口口口 |③---|
口口口① |④---|
39
口④⑤① |①---|
口⑤④口 |----|
口②③口 |②-③-|
口③②口 |④-⑤-|
40
②口口② |①-②-|
口口口口 |③-④-|
①口口①
口口④③

口口口口
口口口口
⑥⑦⑦⑥ |⑤-⑥-|
口⑤口口 |⑦---|
41
①②③④ |--①-|
⑤⑥⑥⑤ |②-③-|
口口口口 |④-⑤-|
⑦口口口 |⑥-⑦-|
42
口口口口 |①---|
口④④口 |②---|
口③③口 |③---|
口②②① |④---|
43
①①①① |①---|
口口口口 |----|
口口口口 |----|
口口口口 |----|
44
口口口口 |----|
口口口口 |----|
口口口口 |----|
口口口口 |----|
45
④④④④ |----|
③③③③ |--①-|
②②①① |②-③-|
①①②② |--④-|
46
④④④④ |----|
③③③③ |--①-|
②②①① |②-③-|
①①②② |--④-|
47
口口口口 |----|
④口口④ |--①-|
③口口③ |②-③-|
①②①② |--④-|
48
口口①口 |----|
口②口④ |--①-|
口口③口 |②-③-|
口口口口 |--④-|
49
口口口口 |①---|
⑤口①⑤ |②-③-|
④②口④ |--④-|
③口口③ |--⑤-|
50
口①②① |----|
口口③口 |--①-|
口口口口 |②-③-|
④口④口 |--④-|
51
口口口口 |①-②-|
口⑤④口 |----|
口②③口 |③-④-|
口①口口 |--⑤-|
52
口①口口 |①---|
口口口口 |----|
口口②② |②---|
②②口口 |----|
53
口口口口 |①---|
口口①① |----|
①①口口
口口口口

④④③③
②②④④
③③口口 |②---|
口口②② |③-④-|
54
④④④④ |----|
③③③③ |--①-|
②②①① |②-③-|
①①②② |--④-|
55
④④④④ |----|
③③③③ |--①-|
②②①① |②-③-|
①①②② |--④-|
56
口口口口 |----|
口①口④ |--①-|
口口②口 |②-③-|
口③口口 |--④-|
57
口口口口 |①---|
⑤口①⑤ |②-③-|
④②口④ |--④-|
③口口③ |--⑤-|
58
口①②① |----|
口口③口 |--①-|
口口口口 |②-③-|
④口④口 |--④-|
59
口口口口 |①-②-|
口⑤④口 |----|
口②③口 |③-④-|
口①口口 |--⑤-|
60
口①口口 |①---|
口口口口 |----|
口口②② |②---|
②②口口 |----|
61
口口口口 |①---|
口口①① |----|
①①口口
口口口口

④④③③
②②④④
③③口口 |②---|
口口②② |③-④-|
62
口口口③ |①---|
③口口口 |--②-|
②口口① |----|
①口口② |③---|
63
①口口口 |--①-|
口口口① |----|
口③②口 |②---|
口②③口 |--③-|
64
口②①口 |----|
口①②口 |①---|
③口口③ |--②-|
④口口④ |③-④-|
65
口⑥③口 |①-②-|
口②⑤口 |③-④-|
⑧④①口 |⑤-⑥-|
口⑦口口 |⑦-⑧-|
66
口口口口 |①-②-|
口①口③ |③---|
口口②口
口口口口

口口口口
口⑦④口
口⑤口口 |④-⑤-|
口口⑥口 |⑥-⑦-|
67
口③口口 |①-②-|
④口口口 |③-④-|
口⑤①⑥ |⑤-⑥-|
口②⑦口 |⑦---|


不确定度: 0

最終更新:2013年03月23日 13:49