アルクアラウンド
サカナクション

EXTREME

Level: 8
BPM: 132
Notes: 728

1
口口口口 |----|
口口口口 |----|
口口口口 |----|
口口口口 |----|
2
①口①口 |①---|
口⑤⑤口 |②-③-|
口④④口 |--④-|
③②③② |--⑤-|
3
口①①口 |--①-|
口口口口 |----|
口口口口 |----|
②口②口 |--②-|
4
③②③② |①---|
口口口口 |②-③-|
口口口口
口①口①

口口口口
口口口口
④⑤⑤④ |--④-|
口⑤⑤口 |--⑤-|
5
⑧②口① |--①②|
口④口③ |-③④-|
口⑥⑨⑤ |⑤⑥-⑦|
口⑧口⑦ |⑧-⑨-|
6
⑦⑤①① |①---|
③口②② |②-③-|
①②④④ |④-⑤-|
口口⑥⑥ |⑥-⑦-|
7
口口①① |①-②-|
口口③③ |③---|
口②④④ |④---|
口口⑤⑤ |⑤---|
8
①①口① |①-②-|
③③②口 |③-④-|
口口口③
口口④口

口口口⑧
口口⑦口
⑤⑤口口 |⑤-⑥-|
⑦⑦口⑥ |⑦-⑧-|
9
①①口口 |①---|
②②口口 |②---|
③③口口 |③---|
④④口口 |④---|
10
口口①① |①---|
②②口口 |②---|
口口③③ |③---|
④④口口 |④---|
11
①①⑦⑥ |①②③④|
⑧⑨③② |⑤⑥⑦⑧|
④⑤⑪⑩ |⑨⑩⑪⑫|
⑬⑫⑫⑬ |⑬---|
12
①口口① |①-②-|
口④②口 |③-④-|
口③③口
口口口口

⑨⑦⑦⑨
⑥口口⑤
⑧口口⑧ |⑤-⑥⑦|
⑤口口⑥ |⑧-⑨-|
13
①口①口 |----|
口口口口 |----|
口②④② |①-②③|
口⑤③⑤ |④-⑤-|
14
口口③口 |①-②-|
口②⑥① |③-④-|
①⑤口④ |⑤-⑥-|
④口口口 |----|
15
口⑥⑧口 |①-②-|
④③⑤口 |③-④-|
①口②④ |⑤-⑥-|
口⑦口① |⑦-⑧-|
16
①口口① |①-②-|
口②④口 |③-④-|
口③③口
口口口口

⑨⑦⑦⑨
⑥口口⑤
⑧口口⑧ |⑤-⑥⑦|
⑤口口⑥ |⑧-⑨-|
17
①口①口 |----|
口口口口 |----|
口②④② |①-②③|
口⑤③⑤ |④-⑤-|
18
口口③口 |①-②-|
口②⑥① |③-④-|
①⑤口④ |⑤-⑥-|
④口口口 |----|
19
口口口口 |①-②-|
④③口口 |③-④-|
①口②④
口口口①

口⑦口⑥
口⑫⑤口
口⑧⑪口 |⑤⑥⑦⑧|
⑩口口⑨ |⑨⑩⑪⑫|
20
①口③③ |①---|
口口②② |②-③-|
④⑤口口 |--④-|
⑤④口口 |--⑤-|
21
①口口口 |--①-|
口①②② |--②-|
⑤口③③ |③-④-|
口口④④ |--⑤-|
22
④⑤口① |①---|
⑤④口口 |②-③-|
口口③③ |--④-|
口口②② |--⑤-|
23
口口②③ |--①-|
口口③② |②-③-|
⑥⑥④⑤ |④-⑤-|
①①⑤④ |⑥---|
24
③③口① |①---|
②②口口 |②-③-|
口口⑤④ |--④-|
口口④⑤ |--⑤-|
25
口口口① |--①-|
②②①口 |--②-|
③③口⑤ |③-④-|
④④口口 |--⑤-|
26
①口⑤④ |①---|
口口④⑤ |②-③-|
③③口口 |--④-|
②②口口 |--⑤-|
27
③②口口 |--①-|
②③口口 |②-③-|
⑤④⑥⑥ |④-⑤-|
④⑤①① |⑥---|
28
①口③③ |①---|
口口②② |②-③-|
④⑤口口 |--④-|
⑤④口口 |--⑤-|
29
①口口口 |--①-|
口①②② |--②-|
⑤口③③ |③-④-|
口口④④ |--⑤-|
30
④⑤口① |①---|
⑤④口口 |②-③-|
口口③③ |--④-|
口口②② |--⑤-|
31
口口②③ |--①-|
口口③② |②-③-|
⑥⑥④⑤ |④-⑤-|
①①⑤④ |⑥---|
32
③③口① |①---|
②②口口 |②-③-|
口口⑤④ |--④-|
口口④⑤ |--⑤-|
33
②②口① |--①-|
③③①口 |②-③-|
④④口口 |④-⑤-|
⑤⑤口口 |----|
34
②口⑥⑤ |①-②-|
口口⑤⑥ |③-④-|
④④口① |--⑤-|
③③⑦⑦ |⑥-⑦-|
35
②①口口 |----|
①②口口 |--①-|
④③⑤⑤ |②-③-|
③④口口 |④-⑤-|
36
口④③② |①---|
⑤⑥⑥⑤ |②-③-|
⑤⑥⑥⑤ |④-⑤-|
口口①① |⑥---|
37
口口口口 |--①-|
⑤⑥⑥⑤ |②-③-|
⑤⑥⑥⑤ |④-⑤-|
①②③④ |⑥---|
38
①①①口 |①---|
③③③口 |②---|
口④④④ |③---|
口②②② |④---|
39
口口口① |①---|
口口口① |----|
①口口口
①口口口

③②口口
②③口口
⑤④口口 |②-③-|
④⑤口口 |④-⑤-|
40
口口④③ |①-②-|
口口口口 |③-④-|
口口①①
口口②②

口⑤口口
⑥⑦⑦⑥
⑥⑦⑦⑥ |⑤-⑥-|
口口口口 |⑦---|
41
口口口口 |--①-|
口口口口 |②-③-|
口口口口
①②③口

口口口⑦
⑤⑥⑥⑤
⑤⑥⑥⑤ |④-⑤-|
⑦口口④ |⑥-⑦-|
42
①①①口 |①---|
③③③口 |②---|
口④④④ |③---|
口②②② |④---|
43
口②口① |①-②-|
口口④口 |③④--|
③口口口
①口口口

口⑦口⑧
口口口⑥
口口口口 |⑤-⑥-|
口口⑤口 |⑦-⑧-|
44
①⑤①⑤ |①-②-|
口②⑥口 |③④--|
口⑧④口 |⑤-⑥-|
③口口⑦ |⑦⑧--|
45
口②①口 |①-②-|
口口④④ |③-④-|
③口口③
④④口口

⑥⑦⑦⑥
⑤⑤口口
⑦⑥⑥⑦ |⑤-⑥-|
口口⑤⑤ |--⑦-|
46
④③③④ |----|
①①②② |--①-|
③④④③ |②-③-|
②②①① |--④-|
47
④④④④ |----|
口口口口 |--①-|
③③③③ |②-③-|
①②①② |--④-|
48
口口口口 |----|
口口口口 |--①-|
口②④口 |②-③-|
①③①③ |--④-|
49
②③②③ |①---|
口口①① |②-③-|
口口口口
口口口口

口口口口
④④④④
口口口口 |--④-|
⑤⑤⑤⑤ |--⑤-|
50
口①②③ |----|
口口④口 |--①-|
①②③口 |②-③-|
口口口④ |--④-|
51
口口口口 |①-②-|
②①口口 |----|
③⑤⑤④ |③-④-|
口②①口 |--⑤-|
52
口①①口 |①---|
②②②② |----|
口口口口 |②---|
口②②口 |----|
53
①①①① |①---|
口口口口 |----|
口①①口
口口口口

口口口口
③②②③
④⑤⑤④ |②-③-|
口口口口 |④-⑤-|
54
③④④③ |----|
②②①① |--①-|
④③③④ |②-③-|
①①②② |--④-|
55
④③③④ |----|
①①②② |--①-|
③④④③ |②-③-|
②②①① |--④-|
56
④④④④ |----|
口口口口 |--①-|
③③③③ |②-③-|
①②①② |--④-|
57
口口口口 |--①-|
②①①② |②-③-|
口⑤⑤口 |--④-|
③④③④ |--⑤-|
58
口②③④ |①---|
①口⑤① |--②-|
②③④口 |③-④-|
口口口⑤ |--⑤-|
59
口口⑤口 |①-②-|
②①口口 |----|
③⑤口④ |③-④-|
口②①口 |--⑤-|
60
口①口口 |①---|
②②②② |----|
口口①口 |②---|
口②②口 |----|
61
①①①① |①---|
口口口口 |----|
口①①口
口口口口

口口口口
③②②③
④⑤⑤④ |②-③-|
口口口口 |④-⑤-|
62
①口口① |①---|
口口口口 |--②-|
口口口口
②口口②

⑤⑤⑤⑤
口③④口
口④③口 |③-④-|
口口口口 |⑤---|
63
口口口口 |--①-|
口③②口 |②-③-|
口②③口
①口口①

④④④④
口口口口
口口口口 |④---|
⑤口口⑤ |--⑤-|
64
③③③③ |①-②-|
⑤①②⑤ |③---|
⑥②①⑥ |--④-|
④口口④ |⑤-⑥-|
65
口①④口 |①-②-|
口口③口 |③-④-|
口④②口
口口①口

口⑥口口
口⑤口⑧
口口口⑦ |⑤-⑥-|
口⑦口口 |⑦-⑧-|
66
口口口① |①-②-|
口口口口 |③---|
③口②口
②口口口

④口口⑦
⑦口口④
口口口⑤ |④-⑤-|
口口口⑥ |⑥-⑦-|
67
口⑥③口 |①-②-|
口⑦④口 |③-④-|
①口⑤口 |⑤-⑥-|
②③⑥口 |⑦---|


不确定度: 0

最終更新:2013年03月23日 13:49