Are U Ready?
mini

BASIC

Level: 3
BPM: 130
Notes: 206

1
口口口口 |----|
口口口口 |----|
口口口口 |----|
口口口口 |----|
2
口口口口 |①---|
口口口口 |----|
口①①口
口口口口

口口口口
口口口口
口口②口 |----|
口口口口 |--②-|
3
口②②口 |①---|
口①口口 |②---|
口口口口 |----|
口口口口 |----|
4
口口口口 |①---|
口口口口 |----|
①口②① |----|
口口口口 |--②-|
5
口口口口 |①---|
口②②口 |----|
口①口口 |②---|
口口口口 |----|
6
①口口① |①---|
口口口口 |----|
口口②口 |----|
口口口口 |--②-|
7
口②②口 |①---|
口口口口 |②---|
口①口口 |----|
口口口口 |----|
8
口口口口 |①---|
口口口口 |----|
①③口① |----|
口口②口 |②-③-|
9
口②②口 |①---|
口口①口 |----|
口口口口 |②---|
口口口口 |----|
10
口②②口 |①---|
③口口③ |②---|
口①①口 |----|
口口口口 |③---|
11
②口口② |----|
口口口口 |①---|
口①①口 |----|
口口口口 |②---|
12
口口口口 |----|
②口口① |①---|
②口口① |----|
口口口口 |②---|
13
口口口口 |----|
口口③口 |①---|
口②口口 |②---|
口口①口 |③---|
14
口①口口 |①---|
②口口② |②---|
口③③口 |----|
口口口口 |③---|
15
②①①② |----|
口口口口 |①---|
口口口口 |----|
口口口口 |②---|
16
口口口口 |----|
②口口① |①---|
②口口① |----|
口口口口 |②---|
17
口①①口 |----|
口口口口 |①---|
口口口口 |----|
口口口口 |----|
18
口口口口 |①---|
口口口口 |②---|
①口②口 |----|
口口口口 |----|
19
口口口口 |①---|
①②③④ |②---|
口口口口 |③---|
口口口口 |④---|
20
口②③① |①---|
口口口口 |②---|
口口口口 |----|
口口口口 |--③-|
21
口口口口 |--①-|
口口①口 |--②-|
口口②口 |--③-|
口口③口 |----|
22
口口口口 |①---|
口口口口 |②---|
口②口① |----|
口口口口 |----|
23
口口口口 |①---|
④③②① |②---|
口口口口 |③---|
口口口口 |④---|
24
①口②口 |①---|
口口口口 |②---|
口口口口 |----|
口口口口 |----|
25
口①口口 |①---|
口②口口 |②---|
口③口口 |③---|
口④口口 |④---|
26
口口口口 |----|
口口口口 |①---|
口口口① |②---|
口口③② |③---|
27
口口口口 |①---|
口口口口 |②---|
口②①口 |③---|
④③口口 |④---|
28
②③口口 |----|
①口口口 |①---|
口口口口 |②---|
口口口口 |③---|
29
口口③④ |①---|
口①②口 |②---|
口口口口 |③---|
口口口口 |④---|
30
口口口口 |①---|
口口口① |②---|
④口口口 |③---|
②口口③ |④---|
31
④口口口 |①---|
②口口③ |②---|
口口口① |③---|
口口口口 |④---|
32
口口口口 |①---|
口②②口 |----|
口①①口 |②---|
口口口口 |----|
33
②口口② |①---|
口口口口 |----|
①口口① |②---|
口口口口 |----|
34
口口口口 |①---|
①①①① |----|
口口口口
口口口口

口口口口
口③口口
②口口口 |②---|
口口口口 |③---|
35
口口①口 |①---|
③口口② |----|
口口口口 |②---|
口口口口 |③---|
36
口④口口 |①---|
口口③口 |②---|
口②口口 |③---|
口口①口 |④---|
37
①口口① |①---|
口口口口 |----|
口③②口 |②---|
口口口口 |③---|
38
口口口口 |①---|
①口③① |----|
口口口② |②---|
口口口口 |③---|
39
口①口口 |①---|
②口口③ |----|
口口口口 |②---|
口口口口 |③---|
40
口口④口 |①---|
口③口口 |②---|
口口②口 |③---|
口①口口 |④---|
41
①口口① |①---|
口口口口 |----|
口②②口 |----|
口口口口 |②---|
42
①口口① |①---|
口③口口 |----|
②口口口 |②---|
口口口口 |③---|
43
口口①口 |①---|
③口口② |----|
口口口口 |②---|
口口口口 |③---|
44
口④口口 |①---|
口口③口 |②---|
口②口口 |③---|
口口①口 |④---|
45
①口口① |①---|
口口口口 |----|
口③②口 |②---|
口口口口 |③---|
46
口口口口 |①---|
①口③① |----|
口口口② |②---|
口口口口 |③---|
47
口①口口 |①---|
②口口③ |----|
口口口口 |②---|
口口口口 |③---|
48
口口④口 |①---|
口③口口 |②---|
口口②口 |③---|
口①口口 |④---|
49
①⑤口① |①---|
口口④口 |--②-|
口③口口 |③-④-|
口口②口 |⑤---|
50
口②②口 |①---|
①口口① |--②-|
口口口口 |----|
口口口口 |----|
51
口口口口 |----|
口口口口 |----|
口口口口 |----|
口口口口 |----|
52
口口口口 |--①-|
口④③⑤ |②---|
口②①口 |③-④-|
口口口口 |--⑤-|
53
口②②口 |--①-|
①口口口 |--②-|
口口口口 |----|
口口口口 |----|
54
口口口口 |----|
口②②口 |①---|
口①①口 |----|
口口口口 |②---|
55
口口口口 |----|
①口口① |①---|
②口口② |----|
口口口口 |②---|
56
口口口口 |----|
口②②口 |①---|
口①①口 |----|
口口口口 |②---|
57
口⑤口⑤ |----|
①口④① |①---|
口③口口 |②-③-|
口口②口 |④-⑤-|


不确定度: 0

最終更新:2013年03月23日 20:46