Are U Ready?
mini

ADVANCED

Level: 6
BPM: 130
Notes: 436

1
口口口口 |----|
口口口口 |----|
口口口口 |----|
口口口口 |----|
2
口口②口 |①---|
①口口① |--②-|
口口口口
口口口口

口口口口
⑥口③口
⑥口④口 |③-④-|
口口⑤口 |⑤-⑥-|
3
口②②口 |①---|
口口口① |②---|
口④口① |--③-|
口③口口 |--④-|
4
②口口口 |①---|
③①①口 |--②-|
④口⑥口 |③-④-|
⑤口⑥口 |⑤-⑥-|
5
口口口口 |①---|
口②②口 |----|
口①④口 |②---|
口①③口 |③④--|
6
①口口① |①---|
口口口口 |----|
口口②口 |----|
口口②口 |--②-|
7
口口口口 |①---|
口②②口 |②---|
口①口口 |----|
口①口口 |----|
8
口口口口 |①---|
口③口口 |----|
①口②① |----|
口口口口 |②-③-|
9
口口①口 |①---|
②口口② |----|
口口口口 |②---|
口口口口 |----|
10
口口口口 |--①-|
④口⑦③ |②-③-|
②⑥口① |④-⑤-|
口口⑤口 |⑥-⑦-|
11
②①⑥⑦ |①-②-|
③④⑤口 |③-④-|
口口口口 |⑤-⑥-|
口口口口 |⑦---|
12
⑦口口口 |--①-|
⑤口口⑥ |②-③-|
③口口④ |④-⑤-|
①口口② |⑥-⑦-|
13
口口⑦⑦ |①-②-|
⑥⑥⑤⑤ |③-④-|
④④③③ |⑤-⑥-|
②②①① |⑦---|
14
口口口口 |--①-|
④口⑦③ |②-③-|
②⑥口① |④-⑤-|
口口⑤口 |⑥-⑦-|
15
口口口⑧ |①-②-|
⑦口⑤口 |③-④-|
①⑥口④ |⑤-⑥-|
⑧②③口 |⑦-⑧-|
16
③④口口 |①---|
②口口① |--②-|
①口口② |③---|
口口④③ |--④-|
17
口口①② |①---|
口口口③ |--②-|
③口口口 |③---|
②①口口 |----|
18
⑦口口口 |①-②-|
①②③口 |③---|
口⑥⑤④ |④-⑤-|
口口口口 |⑥-⑦-|
19
口①②③ |①-②-|
口口口④ |③-④-|
口口口口
口口口口

口口口⑧
⑦⑥⑤口
口口口口 |⑤-⑥-|
口口口口 |⑦-⑧-|
20
③②①口 |①-②-|
⑦⑥⑤④ |③-④-|
口口口口 |⑤-⑥-|
口口⑧⑧ |⑦-⑧-|
21
③③口口 |--①-|
口口②② |--②-|
①①口口 |--③-|
口口口口 |----|
22
口口口⑦ |①-②-|
口③②① |③---|
④⑤⑥口 |④-⑤-|
口口口口 |⑥-⑦-|
23
③②①口 |①-②-|
④口口口 |③-④-|
口口口口
口口口口

⑧口口口
口⑤⑥⑦
口口口口 |⑤-⑥-|
口口口口 |⑦-⑧-|
24
口①②③ |①-②-|
口口口口 |③---|
口口口口 |----|
④④口口 |--④-|
25
④④③③ |--①-|
②②口口 |--②-|
口口①① |--③-|
口口口口 |④---|
26
口口口口 |----|
口口口口 |①---|
口③口③ |②---|
②①②① |③---|
27
口④口④ |①---|
③②③② |②---|
①口①口 |③---|
口口口口 |④---|
28
①②①② |----|
③口③口 |①---|
口口口口 |②---|
口口口口 |③---|
29
口口口口 |①---|
口①口① |②---|
②口②口
口口口口

口口口口
④④④④
口③口③ |③---|
口口口口 |④---|
30
口口口口 |----|
⑥⑥⑤⑤ |①-②-|
④④③③ |③-④-|
②②①① |⑤-⑥-|
31
口口⑦⑦ |①-②-|
⑥⑥⑤⑤ |③-④-|
④④③③ |⑤-⑥-|
②②①① |⑦---|
32
口②②口 |①---|
②口口② |----|
口①①口 |②---|
口口口口 |----|
33
口③③口 |①---|
④①①④ |----|
口口口口 |②---|
②②②② |③-④-|
34
口口⑤⑥ |①-②-|
口⑦④口 |--③-|
①①①① |④-⑤-|
②口③② |⑥-⑦-|
35
②①⑥口 |①-②-|
口⑦口⑤ |--③-|
口口④口 |④-⑤-|
口口③口 |⑥-⑦-|
36
④口④口 |①---|
⑤③⑤③ |②---|
②口②口 |③---|
口①口① |④-⑤-|
37
口口口口 |----|
③口口③ |--①-|
口②②口 |②---|
①口口① |③---|
38
②①①② |①-②-|
口口口口 |--③-|
口口口口
口口③口

口口⑤⑥
口⑦④口
口口口口 |④-⑤-|
口口口口 |⑥-⑦-|
39
②①口口 |①-②-|
口口口口 |--③-|
口口口口
口③口口

口⑥口口
⑤口⑦口
口④口口 |④-⑤-|
口口口口 |⑥-⑦-|
40
口④口④ |①---|
③口③口 |②---|
口②口② |③---|
①口①口 |④---|
41
口口口口 |①---|
口口口口 |----|
口①口① |----|
口②②口 |②---|
42
②③口② |①-②-|
口①①口 |--③-|
口④⑦口 |④-⑤-|
⑥⑤口口 |⑥-⑦-|
43
口③口口 |①-②-|
④⑦⑥口 |--③-|
口⑤口口 |④-⑤-|
口口①② |⑥-⑦-|
44
④口④口 |①---|
口③口③ |②---|
②口②口 |③---|
口①口① |④---|
45
④④③③ |①---|
①口①口 |--②-|
②②⑤⑤ |③-④-|
⑥⑥口口 |⑤-⑥-|
46
口③口口 |①-②-|
②②口口 |--③-|
口④⑦口 |④-⑤-|
⑥⑤①① |⑥-⑦-|
47
口⑥口口 |①-②-|
⑤口⑦口 |--③-|
口④口口 |④-⑤-|
口③①② |⑥-⑦-|
48
口④口④ |①---|
③口③口 |②---|
口②口② |③---|
①口①口 |④---|
49
口⑤口口 |①---|
口①④① |--②-|
口③口口 |③-④-|
口口②口 |⑤---|
50
口口②口 |①---|
①②口① |--②-|
口口②口 |----|
口②口口 |----|
51
②口①① |----|
口口③③ |----|
口口口口 |--①-|
口口口口 |②-③-|
52
口口口口 |--①-|
口口口口 |②---|
口②②口
口①①口

口口口口
④口口③
④口口③ |③-④-|
口⑤⑤口 |--⑤-|
53
口口口口 |--①-|
口①①口 |--②-|
②口口②
口口口口

口口③③
④口⑤⑤
口口口口 |--③-|
口口口口 |④-⑤-|
54
⑦口⑧口 |①-②-|
口⑤口⑥ |③-④-|
③口④口 |⑤-⑥-|
口①②口 |⑦-⑧-|
55
⑥口⑤⑤ |--①-|
④口⑦⑦ |②-③-|
口③口口 |④-⑤-|
①口②口 |⑥-⑦-|
56
口口③③ |--①-|
口口口口 |②-③-|
②口口①
②口口①

⑥⑥口口
④④⑤⑤
口口口口 |④-⑤-|
口口⑦⑦ |⑥-⑦-|
57
⑦口②⑧ |--①-|
①⑥⑧口 |②-③-|
⑤口口③ |④⑤⑥-|
口④口口 |⑦-⑧-|


不确定度: 0

最終更新:2013年03月23日 20:46