Are U Ready?
mini

EXTREME

Level: 8
BPM: 130
Notes: 584

1
口口口口 |----|
口口口口 |----|
口口口口 |----|
口口口口 |----|
2
口口口口 |①---|
口口口口 |--②-|
口口口口
①②口①

口口口口
口⑤口口
③④口口 |③-④-|
口口⑥⑥ |⑤-⑥-|
3
④口②口 |①---|
口口口口 |②---|
③口口① |--③-|
口口口口 |--④-|
4
口口口口 |①---|
口口口口 |--②-|
口①①口
口②口口

口口口口
口⑤口口
③④⑥⑥ |③-④-|
口口口口 |⑤-⑥-|
5
口口口① |①---|
口口口① |----|
口口口口
口口口口

③③④④
③口④④
②口口口 |②---|
②口口口 |③④--|
6
口口口口 |①---|
口口口口 |----|
口①①①
口①①①

口口口口
口口口口
口口口② |----|
口口口② |--②-|
7
口口口① |①---|
口口口口 |②---|
②②②口 |----|
②口②口 |----|
8
口口口口 |①---|
口口口① |----|
②③口① |----|
口②③① |②-③-|
9
口口口口 |①---|
②口口口 |②---|
口口①口
②口口①

⑧口口⑦
口⑥⑤口
④⑩⑨③ |③④⑤⑥|
口口口口 |⑦⑧⑨⑩|
10
口口口口 |--①-|
口口⑦口 |②-③-|
口⑥⑤口 |④-⑤-|
②④③① |⑥-⑦-|
11
②①⑥⑦ |①-②-|
③④⑤口 |③-④-|
口口口口 |⑤-⑥-|
口口口口 |⑦---|
12
口①②口 |--①-|
③⑦口④ |②-③-|
口口⑥口 |④-⑤-|
口⑤口口 |⑥-⑦-|
13
口②⑤④ |①-②-|
①⑥③⑤ |③-④-|
⑦②⑥④ |⑤-⑥-|
①⑦③口 |⑦---|
14
②②口⑦ |--①-|
④④口⑤ |②-③-|
⑥⑥口③ |④-⑤-|
口口口① |⑥-⑦-|
15
③③口口 |①-②-|
口口④④ |③-④-|
口口②②
①①口口

口口⑥⑥
⑤口口口
⑤口口⑧ |⑤-⑥-|
⑦⑦口⑧ |⑦-⑧-|
16
口口②口 |①---|
口①①口 |--②-|
口口②口
口口口口

③口口口
口④口口
③口口口 |③---|
口④口口 |--④-|
17
口⑨⑤口 |①---|
⑦口③① |--②-|
②口③⑥ |③④⑤⑥|
②④⑧① |⑦⑧⑨-|
18
⑦口③口 |①-②-|
口②③④ |③---|
①②⑤口 |④-⑤-|
①⑥口口 |⑥-⑦-|
19
⑧①②③ |①-②-|
⑦⑥⑤④ |③-④-|
⑧口口口 |⑤-⑥-|
口口口口 |⑦-⑧-|
20
口①②③ |①-②-|
口口口口 |③-④-|
口①②③
④口口口

口口⑧口
口⑧口口
⑧口口口 |⑤-⑥-|
口⑤⑥⑦ |⑦-⑧-|
21
②③口口 |--①-|
①口①① |--②-|
口③②口 |--③-|
口③口② |----|
22
口③口⑦ |①-②-|
④③②口 |③---|
口⑤②① |④-⑤-|
口口⑥① |⑥-⑦-|
23
③②①⑧ |①-②-|
④⑤⑥⑦ |③-④-|
口口口⑧ |⑤-⑥-|
口口口口 |⑦-⑧-|
24
③②①口 |①-②-|
口口口口 |③---|
③②①口
口口口口

口④口口
口口④口
口口口④ |----|
口口口口 |--④-|
25
口④①② |--①-|
③③④③ |--②-|
口②①④ |--③-|
②口①口 |④---|
26
口口口口 |----|
口口⑥⑤ |①-②-|
①口③⑤ |③-④-|
①②③④ |⑤-⑥-|
27
③③④④ |①-②-|
②①口口 |③-④-|
口①口口
口口口口

口口口口
口口⑤⑤
⑥⑥口口 |⑤-⑥-|
口口⑦⑦ |⑦---|
28
口⑤口口 |----|
⑥口③口 |①-②-|
口④口① |③-④-|
口口②口 |⑤-⑥-|
29
⑩⑫口⑨ |①-②-|
⑧①⑬⑦ |③④⑤⑥|
⑥⑭②⑤ |⑦⑧⑨⑩|
④口⑪③ |⑪⑫⑬⑭|
30
②②①① |----|
③⑤口④ |①---|
④口⑤③ |②-③-|
①①②② |④-⑤-|
31
口②④③ |①-②-|
口口①口 |③-④-|
口①口口
③④②口

口口口口
⑤⑦⑦⑦
⑥⑥⑥⑤ |⑤-⑥-|
口口口口 |⑦---|
32
口口口口 |①---|
②②②② |----|
口口口口 |②---|
①①①① |----|
33
口②①口 |①②③④|
口④③口 |⑤⑥⑦⑧|
口⑥⑤口
口⑧⑦口

⑨⑩⑩⑨
⑪口口⑪
口口口口 |⑨---|
口口口口 |⑩-⑪-|
34
③口口③ |①-②-|
口口口口 |--③-|
①①①①
②口口②

口⑤⑤口
口④④口
⑥口口⑥ |④-⑤-|
口⑦⑦口 |⑥-⑦-|
35
口口口口 |①-②-|
②口口② |--③-|
口①①口
③口口③

口⑦⑦口
⑥⑤⑤⑥
④口口④ |④-⑤-|
口口口口 |⑥-⑦-|
36
④⑤④⑤ |①---|
口③口③ |②---|
②口②口 |③---|
口①口① |④-⑤-|
37
口口口⑥ |①-②-|
①⑤⑤⑥ |③-④-|
②⑤⑥④ |⑤---|
③④④口 |⑥---|
38
②②口口 |①-②-|
②口口口 |--③-|
①②口口
①口口③

⑦口⑥⑦
口⑤口口
口口④口 |④-⑤-|
口口口口 |⑥-⑦-|
39
口口口口 |①-②-|
①口口① |--③-|
口②②口
③口口③

口⑦⑦口
⑥⑤⑤⑥
④口口④ |④-⑤-|
口口口口 |⑥-⑦-|
40
口④口④ |①---|
③⑤③口 |②---|
口②口② |③---|
①口①口 |④-⑤-|
41
口口口口 |①-②-|
口口口口 |----|
口①口口
口②口口

口③口口
③口口口
口③口口 |----|
③口口口 |③---|
42
⑦⑥①⑦ |①-②-|
口②⑤② |--③-|
口④①口 |④-⑤-|
③口①口 |⑥-⑦-|
43
口口口口 |①-②-|
②口口② |--③-|
口口口口
③①①③

口⑦⑦口
⑥⑤⑤⑥
④口口④ |④-⑤-|
口口口口 |⑥-⑦-|
44
④⑤④⑤ |①---|
口③口③ |②---|
②口②口 |③---|
口①口① |④-⑤-|
45
口口口口 |①-②-|
④口①口 |③-④-|
口口②口
口口③口

口⑤口口
口口⑥口
⑧⑦口口 |⑤-⑥-|
⑧口口口 |⑦-⑧-|
46
③口口③ |①-②-|
口口口口 |--③-|
口口①口
口口①②

口⑤⑤口
口④④口
⑥口口⑥ |④-⑤-|
口⑦⑦口 |⑥-⑦-|
47
口口口口 |①-②-|
②口口② |--③-|
口①①口
③口口③

口⑦⑦口
⑥⑤⑤⑥
④口口④ |④-⑤-|
口口口口 |⑥-⑦-|
48
口④口④ |①---|
③口③⑤ |②---|
口②口② |③---|
①口①口 |④-⑤-|
49
口③⑥口 |①-②-|
口③⑤口 |--③-|
④口⑤① |④-⑤-|
④④口② |⑥---|
50
①①②口 |①---|
口②口口 |--②-|
口口②口 |----|
口②口口 |----|
51
①口口口 |----|
口①口口 |----|
口②口口 |--①-|
②口口口 |--②-|
52
口口口② |--①-|
口口口② |②---|
口口口②
口①①①

③口④口
③口④口
③口④口 |③-④-|
⑤⑤⑤口 |--⑤-|
53
口①口② |--①-|
口①口② |--②-|
口①口② |--③-|
③④④③ |--④-|
54
口①口口 |①-②-|
③口口② |③-④-|
口口④口
口口口口

口⑦⑥口
口口口口
口⑤口口 |⑤-⑥-|
⑧口口⑧ |⑦-⑧-|
55
④口⑤⑤ |--①-|
⑥口⑦⑦ |②-③-|
①③③① |④-⑤-|
口②②口 |⑥-⑦-|
56
③②②③ |--①-|
④⑦⑦④ |②-③-|
口⑤⑤口 |④-⑤-|
⑥①①⑥ |⑥-⑦-|
57
口口①口 |--①-|
②口口口 |②-③-|
口口口③
口口口口

⑦口⑧⑧
口⑥⑧⑧
⑤口口口 |④⑤⑥-|
口④口口 |⑦-⑧-|


不确定度: 0

最終更新:2013年03月23日 20:45