トラヴェルマシン
ヒルクライム

BASIC

Level: 4
BPM: 128
Notes: 269

1
口口口口 |----|
口口口口 |----|
口口口口 |----|
口口口口 |----|
2
口口口口 |①---|
口口口④ |②---|
口②③口 |③---|
①口口口 |④---|
3
口口口口 |①---|
口②口③ |②---|
①口④口 |③---|
口口口口 |④---|
4
口口口口 |①---|
口口口④ |②---|
口②③口 |③---|
①口口口 |④---|
5
口口口口 |①---|
②口口口 |②---|
①口口口
口口口口

口口口③
口③④口
④口口口 |③---|
口口口口 |④---|
6
口①①口 |①---|
口口②口 |----|
口口③口 |②---|
口口口口 |③---|
7
③口③口 |①---|
④②④口 |②---|
口①口口 |③---|
口口口口 |④---|
8
口口口口 |①---|
口口③② |----|
口①口① |②---|
口口口口 |③---|
9
口③③口 |①---|
口口口口 |②---|
口口口① |③---|
口②②口 |----|
10
口口口口 |①---|
④口口① |②---|
口③②口 |③---|
口口口口 |④---|
11
①④④口 |①---|
口②③口 |②---|
口口口口 |③---|
口口口口 |④---|
12
口口口口 |①---|
口口口口 |②---|
口③②口 |③---|
④口口① |④---|
13
口口口口 |①---|
口②③口 |②---|
①口口④ |③---|
口口口口 |④---|
14
口口口口 |①---|
口口口口 |②---|
口②①口 |③---|
口④③口 |④---|
15
口口口③ |①---|
②口口④ |②---|
①口口口 |③---|
口口口口 |④---|
16
口①口③ |①---|
②口④口 |②---|
口口口口 |③---|
口口口口 |④---|
17
口口口口 |①---|
口③③口 |②---|
口④口口 |③---|
①口口② |④---|
18
口口口口 |①---|
①口口② |②---|
③口口④ |③---|
口口口口 |④---|
19
口口④口 |①---|
口③口口 |②-③-|
口口②口 |----|
口①口口 |④---|
20
口口口口 |①---|
②④①③ |②---|
口口口口 |③---|
口口口口 |④---|
21
口②②① |----|
口③③口 |①---|
口③③口 |②---|
口口口口 |③---|
22
口口口口 |①---|
①口口② |②---|
③口口④ |③---|
口口口口 |④---|
23
口口④口 |①---|
口③口口 |②-③-|
口口②口 |----|
口①口口 |④---|
24
口口口口 |①---|
②④①③ |②---|
口口口口 |③---|
口口口口 |④---|
25
④②②口 |①---|
口口①口 |②---|
口③③口 |③---|
口口口口 |④---|
26
口①口口 |①---|
口④③② |②---|
口口口口 |③---|
口口口口 |④---|
27
口④④口 |①-②-|
口口③口 |③-④-|
口②口口 |----|
口口①口 |----|
28
口①口口 |①---|
口④③② |②---|
口口口口 |③---|
口口口口 |④---|
29
口④④口 |①-②-|
口口③口 |③-④-|
口②口口 |----|
口口①口 |----|
30
口口①口 |①---|
②③④口 |②---|
口口口口 |③---|
口口口口 |④---|
31
口③③口 |①-②-|
口④口口 |--③-|
口②口口 |----|
口口①口 |④---|
32
口口①口 |①---|
②③④口 |②---|
口口口口 |③---|
口口口口 |④---|
33
③③③③ |①-②-|
口口口口 |--③-|
口②口口 |----|
④口①口 |④---|
34
①③①③ |①---|
口口口口 |--②-|
口②口② |----|
口口口口 |③---|
35
②口②口 |①---|
口口口口 |--②-|
①③①③ |----|
口口口口 |③---|
36
①口①口 |①---|
口口口口 |②---|
②口②口 |----|
口口口口 |----|
37
口③③口 |①---|
口口口口 |②---|
口口口① |③---|
口②②④ |④---|
38
④口口口 |①---|
口③③口 |②-③-|
口①①口 |----|
口②②口 |④---|
39
口①口口 |①---|
口口②③ |②---|
口口口④ |③---|
口口口口 |④---|
40
②③口口 |----|
口口口口 |①---|
①口口口 |②---|
口口口口 |③---|
41
②③③② |①---|
口①口口 |②---|
口口口口 |③---|
口口口④ |④---|
42
④口口口 |①---|
口③③口 |②-③-|
口①①口 |----|
口②②口 |④---|
43
口①口口 |①---|
口口②口 |②---|
口口口口 |----|
口③口口 |③---|
44
口口②③ |①---|
口口口口 |②---|
口口口④ |③---|
①口口口 |④---|
45
②③③② |①---|
口①口口 |②---|
口口口口 |③---|
口口口④ |④---|
46
④口口口 |①---|
口③③口 |②-③-|
口①①口 |----|
口②②口 |④---|
47
口①口口 |①---|
口口②③ |②---|
口口口④ |③---|
口口口口 |④---|
48
口口口① |----|
口口口② |①---|
口口口③ |②---|
口口口口 |③---|
49
②口口② |①---|
口口口口 |②---|
口口口口
口口口①

口③③口
口口口口
口口口口 |③---|
口口口④ |④---|
50
④口口口 |①---|
口③③口 |②-③-|
口①①口 |----|
口②②口 |④---|
51
口①口口 |①---|
口口②③ |②---|
口口口④ |③---|
口口口口 |④---|
52
口③②口 |①---|
口口口口 |②---|
口口口④ |③---|
口口①口 |④---|
53
②③③② |①---|
口口口口 |②---|
口口①口 |③---|
口口口口 |----|
54
口口口口 |①---|
口口口④ |②---|
口②③口 |③---|
①口口口 |④---|
55
口口口口 |①---|
②口口口 |②---|
①口口口
口口口口

口口口③
口③④口
④口口口 |③---|
口口口口 |④---|
56
口口口口 |①---|
口口口④ |②---|
口②③口 |③---|
①口口口 |④---|
57
③③③③ |①---|
口口口口 |②---|
①口口口 |③---|
口②②口 |----|


不确定度: 0

最終更新:2012年11月14日 16:04