トラヴェルマシン
ヒルクライム

ADVANCED

Level: 6
BPM: 128
Notes: 469

1
口口口口 |----|
口口口口 |----|
口口口口 |----|
口口口口 |----|
2
口口口口 |①--②|
口口口口 |--③-|
口②③⑤ |④--⑤|
①④⑥口 |--⑥-|
3
口口口口 |①--②|
口口②④ |--③-|
①③⑤口 |④---|
口口口口 |⑤---|
4
口口口口 |①--②|
口口口口 |--③-|
口②③⑤ |④--⑤|
①④⑥口 |--⑥-|
5
口口口口 |①--②|
口口②口 |--③-|
①③口口
口口口口

口口口④
口④⑤口
⑤口口口 |④---|
口口口口 |⑤---|
6
口①①② |①---|
口口③口 |--②-|
口口口口 |③---|
口⑤④口 |④-⑤-|
7
⑤④⑤口 |①-②-|
⑥③⑥口 |③-④-|
②①口口 |⑤---|
口口口口 |⑥---|
8
口口⑤② |①---|
口口④③ |--②-|
口①口① |③---|
口口口口 |④-⑤-|
9
口⑤⑤口 |①-②-|
口口口口 |③-④-|
②口口① |⑤---|
④③③④ |----|
10
口口口口 |①-②-|
口口②① |③-④-|
④③口口
口口口口

口口口口
⑧⑦⑦口
口口口⑤ |⑤-⑥-|
口⑥⑥口 |⑦-⑧-|
11
①②③④ |①-②-|
口⑥⑥⑤ |③-④-|
口⑥⑥口 |⑤---|
口口口口 |⑥---|
12
⑤②②口 |①---|
口⑥⑥④ |②-③-|
③⑦⑦口 |④-⑤-|
口①①口 |⑥-⑦-|
13
口⑤⑤口 |①-②-|
④口口② |③-④-|
口⑥⑥口 |⑤-⑥-|
③⑦⑦① |⑦---|
14
口口口口 |①-②-|
口口②① |③-④-|
④③口口
口口口口

口口口口
口口口口
口⑧⑥口 |⑤-⑥-|
口⑦⑤口 |⑦-⑧-|
15
④口口⑤ |①-②-|
③口⑥口 |③-④-|
②⑦口口 |--⑤-|
①口口口 |⑥-⑦-|
16
口①③④ |--①-|
口②口⑤ |②-③-|
口⑥⑥口 |④-⑤-|
⑦口口口 |⑥-⑦-|
17
④口口④ |①--②|
①④④③ |--③-|
口口⑥口 |④---|
口⑤口② |⑤-⑥-|
18
口口口② |--①-|
①口口③ |--②-|
④口口口 |③---|
口⑤口口 |④-⑤-|
19
口口口口 |①---|
③口口③ |②-③-|
口②②口
①口口①

口口口口
口口口口
口⑥口④ |--④-|
口口⑤口 |⑤-⑥-|
20
口口口口 |①-②-|
③⑦①⑤ |③-④-|
④⑧②⑥ |⑤-⑥-|
口口口口 |⑦-⑧-|
21
②③③① |----|
④⑤⑤④ |①-②-|
④⑤⑤④ |③---|
口口口口 |④-⑤-|
22
①②口③ |--①-|
口口⑤④ |②-③-|
⑥口口口 |④-⑤-|
口⑦口口 |⑥-⑦-|
23
④口口④ |①-②-|
③口口③ |③-④-|
口②②口
①口口①

口口口口
口口口口
口⑦口⑤ |--⑤-|
口口⑥口 |⑥-⑦-|
24
口口口口 |①-②-|
③⑦①⑤ |③-④-|
④⑧②⑥ |⑤-⑥-|
口口口口 |⑦-⑧-|
25
⑤③③口 |①-②-|
④⑥口④ |③-④-|
④口口④ |----|
①口口② |⑤-⑥-|
26
口⑧⑦⑥ |①-②-|
⑤口①③ |③-④-|
口口口口 |⑤-⑥-|
④口口② |⑦-⑧-|
27
④口口④ |①-②-|
⑤②②口 |③-④-|
口①①口 |----|
口③③口 |--⑤-|
28
口⑧⑦⑥ |①-②-|
⑤口①③ |③-④-|
口口口口 |⑤-⑥-|
④口口② |⑦-⑧-|
29
④口口④ |①-②-|
⑤②②口 |③-④-|
口①①口 |----|
口③③口 |--⑤-|
30
⑦口⑧⑥ |①-②-|
⑤口①③ |③-④-|
口口口口 |⑤-⑥-|
④口口② |⑦-⑧-|
31
③口口③ |①-②-|
口①①口 |--③-|
口口口口
口②②口

口口口口
④⑤⑥口
口口口口 |--④-|
口口口口 |⑤-⑥-|
32
口口口口 |①-②-|
④口口② |③-④-|
③口口①
口口口口

⑥口⑦⑤
口口口口
⑧口口⑧ |⑤-⑥-|
口口口口 |⑦-⑧-|
33
③③③③ |①-②-|
口①①口 |--③-|
⑤口口口 |----|
④②②口 |④-⑤-|
34
①⑤①⑤ |①-②-|
④口口口 |--③-|
口③口③ |④---|
⑥口口② |⑤-⑥-|
35
③口③口 |①-②-|
⑥口口② |--③-|
①⑤①⑤ |④---|
口口口④ |⑤-⑥-|
36
①口①④ |①-②-|
⑦⑥④口 |③-④-|
③⑤口口 |⑤-⑥-|
口③口② |⑦---|
37
口⑤⑤口 |①-②-|
口口口口 |③-④-|
②④④① |⑤---|
⑦③③⑥ |⑥-⑦-|
38
④④④④ |①-②-|
口②②口 |③-④-|
口①①口
口③③口

口口口口
⑥口口口
口口口口 |--⑤-|
口口⑦⑤ |⑥-⑦-|
39
①口④② |①-②-|
⑦口口口 |③-④-|
③口口口 |⑤-⑥-|
⑤口⑥⑧ |⑦-⑧-|
40
④⑥口口 |--①-|
③口口口 |②-③-|
②口口口 |④-⑤-|
①口⑦⑤ |⑥-⑦-|
41
口口口③ |①-②-|
口①④口 |③-④-|
口④②口
③口口口

口口口口
口口口口
口口口口 |----|
⑥口口⑤ |⑤-⑥-|
42
④④④④ |①-②-|
口②②口 |③-④-|
口①①口
口③③口

口口口口
⑥口口口
口口口口 |--⑤-|
口口⑦⑤ |⑥-⑦-|
43
①口④② |①-②-|
口口口口 |③-④-|
③口口口 |--⑤-|
⑤⑥⑦口 |⑥-⑦-|
44
口③②① |--①-|
口口口口 |②-③-|
口口口口
口口口口

口口⑥口
④口口口
口口口⑤ |--④-|
口口口口 |⑤-⑥-|
45
口口口③ |①-②-|
口①④口 |③-④-|
口④②口
③口口口

口口口口
口口口口
口口口口 |----|
⑥口口⑤ |⑤-⑥-|
46
④④④④ |①-②-|
口②②口 |③-④-|
口①①口
口③③口

口口口口
⑥口口口
口口口口 |--⑤-|
口口⑦⑤ |⑥-⑦-|
47
①口④② |①-②-|
⑦口口口 |③-④-|
③口口口 |⑤-⑥-|
⑤口⑥⑧ |⑦-⑧-|
48
⑦口口② |--①-|
⑤口口④ |②-③-|
③口口⑥ |④-⑤-|
①口口口 |⑥-⑦-|
49
口口口③ |①-②-|
口②④口 |③-④-|
口④②口
③口口①

口口口口
口口口口
口口口口 |----|
⑥口口⑤ |⑤-⑥-|
50
④④④④ |①-②-|
口②②口 |③-④-|
口①①口
口③③口

口口口口
⑥口口口
口口口口 |--⑤-|
口口⑦⑤ |⑥-⑦-|
51
①口④② |①-②-|
口口口口 |③-④-|
③口口口 |--⑤-|
⑤⑥⑦口 |⑥-⑦-|
52
口③②① |--①-|
口口口口 |②-③-|
口口口口
口口口口

口口⑥口
④口口口
口口口⑤ |--④-|
口口口口 |⑤-⑥-|
53
口口口② |--①-|
口口③口 |②-③-|
口③①口 |----|
②口口口 |----|
54
口口口口 |①--②|
口口口口 |--③-|
口②③⑤ |④--⑤|
①④⑥口 |--⑥-|
55
口口口口 |①--②|
口口②口 |--③-|
①③口口
口口口口

口口口④
口④⑤口
⑤口口口 |④---|
口口口口 |⑤---|
56
口口口口 |①--②|
口口口口 |--③-|
口②③口
①口口口

口口口口
口口⑤口
口⑥口口 |④--⑤|
口④口口 |--⑥-|
57
⑤⑤⑤⑤ |①-②-|
口口口口 |③-④-|
②口口① |⑤---|
④③③④ |----|


不确定度: 0

最終更新:2012年11月14日 16:04