トラヴェルマシン
ヒルクライム

EXTREME

Level: 8
BPM: 128
Notes: 593

1
口口口口 |----|
口口口口 |----|
口口口口 |----|
口口口口 |----|
2
口口①口 |①--②|
口口口口 |--③-|
口②③⑤ |④--⑤|
①④⑥口 |--⑥-|
3
口口口口 |①--②|
口口②口 |--③-|
①③口口
口口口口

口口⑦口
口口⑥④
口口⑤口 |④---|
口口口口 |⑤-⑥⑦|
4
口①口① |①--②|
口口口口 |--③-|
口②③⑤ |④--⑤|
①④⑥口 |--⑥-|
5
口口口口 |①--②|
口口②口 |--③-|
①③口口
口口口口

口口口④
口④⑤⑦
⑤口口⑥ |④---|
口口口口 |⑤-⑥⑦|
6
①①①③ |①---|
②口④口 |②-③④|
⑤口⑤⑦ |⑤---|
⑥口⑥口 |⑥-⑦-|
7
①口④口 |①-②-|
③口③① |③-④-|
口口②口
口口口口

口⑤口⑤
口⑥口⑥
⑤口⑧口 |⑤---|
⑥口⑦口 |⑥-⑦⑧|
8
①口⑦③ |①---|
②口⑥④ |②-③④|
⑤①⑤① |⑤---|
⑥口口口 |⑥-⑦-|
9
口口口口 |①-②-|
口口口口 |③-④-|
②口口①
④③③④

口⑤⑤口
口口口口
口口口⑥ |⑤---|
口口口口 |---⑥|
10
口口口口 |①-②③|
④③②① |④-⑤⑥|
⑤⑥口口
口口口口

口口口口
口⑩⑩口
⑫口⑦⑧ |⑦⑧⑨-|
⑪⑨⑨口 |⑩-⑪⑫|
11
②③④口 |①②③④|
①口口⑤ |-⑤⑥-|
口口口⑥
口口口口

⑧口口⑧
口⑧⑧口
口⑧⑧口 |⑦---|
口口口⑦ |⑧---|
12
⑦②②⑧ |①---|
⑤⑨⑨⑥ |②-③④|
③⑩⑩④ |⑤⑥⑦⑧|
口①①口 |⑨-⑩-|
13
⑦口⑨⑩ |①②③④|
⑥⑧口③ |⑤⑥⑦⑧|
⑤⑪⑪② |⑨⑩⑪-|
④⑫⑫① |⑫---|
14
口口口口 |①②③④|
④③②① |⑤⑥⑦⑧|
⑤⑥⑦⑧
口口口口

口口口口
口⑫⑪口
口口口口 |-⑨⑩-|
口口⑩⑨ |⑪-⑫-|
15
④⑤⑥⑦ |①-②-|
③口⑧口 |③-④⑤|
②⑨口口 |-⑥⑦-|
①口口口 |⑧-⑨-|
16
①②⑤⑥ |-①②③|
③④⑦⑧ |④-⑤⑥|
⑪⑨⑨口 |-⑦⑧-|
⑩口口口 |⑨-⑩⑪|
17
⑤口口⑤ |①--②|
①⑤⑤④ |-③④-|
口口⑦③ |⑤---|
口⑥口② |⑥-⑦-|
18
口口口② |--①-|
①口口③ |--②-|
④口口口 |③---|
口⑤口口 |④-⑤-|
19
口口口口 |①---|
③口口③ |②-③-|
口②②口
①口口①

口口口口
口口口口
口⑥口④ |--④-|
口口⑤口 |⑤-⑥-|
20
口口口口 |①-②-|
③⑦①⑤ |③-④-|
④⑧②⑥ |⑤-⑥-|
口口口口 |⑦-⑧-|
21
②③③① |----|
④⑤⑤④ |①-②-|
④⑤⑤④ |③---|
口口口口 |④-⑤-|
22
①②口③ |--①-|
口口⑤④ |②-③-|
⑥口口口 |④-⑤-|
口⑦口口 |⑥-⑦-|
23
④口口④ |①-②-|
③口口③ |③-④-|
口②②口
①口口①

口口口口
口口口口
口⑦口⑤ |--⑤-|
口口⑥口 |⑥-⑦-|
24
口口口口 |①-②-|
③⑦①⑤ |③-④-|
④⑧②⑥ |⑤-⑥-|
口口口口 |⑦-⑧-|
25
⑤③③口 |①-②-|
④⑥口④ |③-④-|
④口口④ |----|
①口口② |⑤-⑥-|
26
⑨⑪⑩⑧ |①-②③|
⑦口①④ |④-⑤⑥|
⑥口口③ |⑦-⑧⑨|
⑤口口② |⑩-⑪-|
27
④口口④ |①-②-|
口②②口 |③-④-|
口①①口
口③③口

口口口口
⑤⑥口口
口口口口 |----|
口口口口 |--⑤⑥|
28
⑨⑪⑩⑧ |①-②③|
⑦口①④ |④-⑤⑥|
⑥口口③ |⑦-⑧⑨|
⑤口口② |⑩-⑪-|
29
④口口④ |①-②-|
口②②口 |③-④-|
口①①口
口③③口

口口口口
⑤⑥口口
口口口口 |----|
口口口口 |--⑤⑥|
30
⑨口⑩⑧ |①-②③|
⑦口①④ |④-⑤⑥|
⑥口口③ |⑦-⑧-|
⑤口口② |⑨-⑩-|
31
③口口③ |①-②-|
口①①口 |--③-|
口口口口
口②②口

口口口口
④⑤⑥口
口口口口 |--④-|
口口口口 |⑤-⑥-|
32
口口口口 |①-②-|
④口口② |③-④-|
③口口①
口口口口

⑥⑧⑦⑤
口口口口
⑨口口⑨ |⑤-⑥-|
口口口口 |⑦⑧⑨-|
33
③③③③ |①-②-|
口①①口 |--③-|
⑤口口口 |----|
④②②口 |④-⑤-|
34
①①①口 |①-②-|
口①口口 |--③-|
口③③③
口口③②

口⑤⑤⑤
④口⑤口
口口口口 |④---|
⑥口口口 |⑤-⑥-|
35
③③③口 |①-②-|
口③口② |--③-|
①①①口
口①口口

口口口口
⑥口口口
口⑤⑤⑤ |④---|
口口⑤④ |⑤-⑥-|
36
①①①④ |①-②-|
口①④④ |③-④-|
③口口口
③③口②

口口口口
⑦⑥口口
口⑤口口 |⑤-⑥-|
口口口口 |⑦---|
37
口⑤⑤口 |①-②-|
口口口口 |③-④-|
②④④① |⑤---|
⑦③③⑥ |⑥-⑦-|
38
④④④④ |①-②-|
口②②口 |③-④-|
口①①口
口③③口

口口口口
⑤⑦⑥口
口口口口 |--⑤-|
⑤⑦口⑥ |⑥-⑦-|
39
②口①③ |①-②-|
④口口口 |③-④-|
②口③①
④口口口

口⑥⑦口
口⑧口⑤
口⑥口⑦ |⑤-⑥-|
口⑧⑤口 |⑦-⑧-|
40
⑦⑨口② |--①②|
⑤口口④ |③④⑤⑥|
③口口⑥ |⑦-⑧-|
①口⑩⑧ |⑨-⑩-|
41
口口口③ |①-②-|
口①④口 |③-④-|
口④②口
③口口口

口口口口
口口口口
口口口口 |----|
⑥口口⑤ |⑤-⑥-|
42
④④④④ |①-②-|
口②②口 |③-④-|
口①①口
口③③口

口口口口
⑤⑦⑥口
口口口口 |--⑤-|
⑤⑦口⑥ |⑥-⑦-|
43
②④①③ |①-②-|
口口口口 |③-④-|
②④③① |--⑤-|
⑤⑥⑦口 |⑥-⑦-|
44
口③②① |--①-|
口口口口 |②-③-|
口口口口
口口口口

口口⑦口
④口口⑥
口口口⑤ |--④-|
口口口口 |⑤⑥⑦-|
45
口口口③ |①-②-|
口①④口 |③-④-|
口④②口
③口口口

口口口口
口口口口
口口口口 |----|
⑥口口⑤ |⑤-⑥-|
46
④④④④ |①-②-|
口②②口 |③-④-|
口①①口
口③③口

口口口口
⑤⑦⑥口
口口口口 |--⑤-|
⑤⑦口⑥ |⑥-⑦-|
47
②口①③ |①-②-|
④口口口 |③-④-|
②口③①
④口口口

口⑥⑦口
口⑧口⑤
口⑥口⑦ |⑤-⑥-|
口⑧⑤口 |⑦-⑧-|
48
⑦口口② |--①-|
⑤口口④ |②-③-|
③口口⑥ |④-⑤-|
①口口口 |⑥-⑦-|
49
口口口③ |①-②-|
口②④口 |③-④-|
口④②口
③口口①

口口口口
口口口口
口口口口 |----|
⑥口口⑤ |⑤-⑥-|
50
④④④④ |①-②-|
口②②口 |③-④-|
口①①口
口③③口

口口口口
⑤⑦⑥口
口口口口 |--⑤-|
⑤⑦口⑥ |⑥-⑦-|
51
②④①③ |①-②-|
口口口口 |③-④-|
②④③① |--⑤-|
⑤⑥⑦口 |⑥-⑦-|
52
口③②① |--①-|
口口口口 |②-③-|
口口口口
口口口口

口口⑥口
④口口口
口口口⑤ |--④-|
口口口口 |⑤-⑥-|
53
口口口② |--①-|
口口③口 |②-③-|
口③①口 |----|
②口口口 |----|
54
口口口口 |①--②|
口口口⑥ |-③④-|
⑤⑧⑦④ |⑤--⑥|
①③②口 |--⑦⑧|
55
②③④⑥ |①-②③|
①⑥⑦⑤ |④-⑤-|
⑦⑧口口 |⑥---|
口口口口 |⑦--⑧|
56
口口口口 |①--②|
口口口⑥ |-③④-|
⑤⑧⑦④ |⑤--⑥|
①③②口 |--⑦⑧|
57
⑤⑤⑤⑤ |①-②-|
口口口口 |③-④-|
②口口① |⑤---|
④③③④ |----|


不确定度: 0

最終更新:2012年11月14日 16:04