となりのトトロ feat.sayurina
新井大樹

BASIC

Level: 2
BPM: 128
Notes: 177

1
口口口口 |----|
口口口口 |----|
口口口口 |----|
口口口口 |----|
2
口口①口 |①---|
口口口口 |----|
口口口口 |----|
口口口口 |----|
3
口口口口 |①---|
口口①口 |----|
口口口口 |----|
口口口口 |----|
4
口口口口 |①---|
口口口口 |----|
口口①口 |----|
口口口口 |----|
5
口口口口 |①---|
口口口口 |----|
口口口口 |----|
口口①口 |----|
6
口口口口 |①---|
口口口口 |----|
口口口口 |----|
口①口口 |----|
7
口口口口 |①---|
口口口口 |----|
口①口口 |----|
口口口口 |----|
8
口口口口 |①---|
口①口口 |----|
口口口口 |----|
口口口口 |----|
9
口①口口 |①---|
口口口口 |----|
口口口口 |----|
口口口口 |----|
10
①口口口 |①---|
②口口口 |----|
口口口口 |②---|
口口口口 |----|
11
口口口口 |①---|
口口口口 |----|
①口口口 |②---|
②口口口 |----|
12
口口口口 |①---|
口口口口 |----|
口②口口 |②---|
口①口口 |----|
13
口②口口 |①---|
口①口口 |----|
口口口口 |②---|
口口口口 |----|
14
口口①口 |①---|
口口②口 |----|
口口口口 |②---|
口口口口 |----|
15
口口口口 |①---|
口口口口 |----|
口口①口 |②---|
口口②口 |----|
16
口口口口 |①---|
口口口口 |----|
口口口② |②---|
口口口① |----|
17
口口口口 |①---|
口口口口 |----|
口①①口 |----|
口口口口 |----|
18
口口①口 |----|
口口②口 |①---|
口口③口 |②---|
口口口口 |③---|
19
口口口口 |①---|
口口口口 |----|
口口口口 |----|
口口①口 |----|
20
口①口口 |----|
口②口口 |①---|
口③口口 |②---|
口口口口 |③---|
21
口口口口 |①---|
口口口口 |----|
口口口口 |----|
口①口口 |----|
22
口口口口 |①---|
口口口口 |----|
口口②① |②---|
口口口口 |----|
23
口口口口 |①---|
口口口口 |----|
②①口口 |②---|
口口口口 |----|
24
口口口口 |①---|
口①①口 |----|
口②②口 |②---|
口口口口 |----|
25
口口口口 |①---|
②口口① |----|
口口口口 |②---|
口口口口 |----|
26
口口①口 |----|
口口②口 |①---|
口口③口 |②---|
口口口口 |③---|
27
口口口口 |①---|
口口口口 |----|
口口口口 |----|
口口①口 |----|
28
口①口口 |----|
口②口口 |①---|
口③口口 |②---|
口口口口 |③---|
29
口口口口 |①---|
口口口口 |----|
口口口口 |----|
口①口口 |----|
30
口口口① |①---|
口口②口 |②---|
口③口口 |③---|
④口口口 |④---|
31
口口口口 |①---|
②口口口 |----|
①口口口 |----|
口口口口 |②---|
32
①口口口 |①---|
口②口口 |②---|
口口③口 |③---|
口口口④ |④---|
33
口口口口 |①---|
口口口口 |----|
口口口① |----|
口口口口 |----|
34
口口口口 |①---|
口口口口 |②---|
④③②① |③---|
口口口口 |④---|
35
口口口口 |①---|
①②③④ |②---|
口口口口 |③---|
口口口口 |④---|
36
口③③口 |①---|
口②②口 |--②-|
口①①口 |----|
口口口口 |③---|
37
口口口口 |----|
①②③① |①---|
口口口口 |②---|
口口口口 |③---|
38
口①口口 |①---|
口②口口 |②---|
口③口口 |③---|
口④口口 |④---|
39
口口口口 |①---|
口口口口 |----|
口口①① |----|
口口口口 |----|
40
口口①口 |①---|
口口②口 |②---|
口口③口 |③---|
口口④口 |④---|
41
口口口口 |①---|
口口口口 |----|
①①口口 |----|
口口口口 |----|
42
口口①② |----|
口口口③ |①---|
口口口口 |②---|
口口口口 |③---|
43
口口口口 |①---|
口口口口 |②---|
口口口① |③---|
口口③② |----|
44
②①口口 |①---|
③口口口 |②---|
④口口口 |③---|
口口口口 |④---|
45
口口口口 |①---|
口②③口 |----|
口口口口 |②---|
①口口口 |③---|
46
口①口口 |①---|
口②口口 |②---|
口③口口 |③---|
口④口口 |④---|
47
口口口口 |①---|
口口口口 |----|
口口①① |----|
口口口口 |----|
48
口口①口 |①---|
口口②口 |②---|
口口③口 |③---|
口口④口 |④---|
49
口口口口 |①---|
口口口口 |----|
①①口口 |----|
口口口口 |----|
50
口口口口 |①---|
口①②口 |----|
口口口口 |②---|
口口口口 |----|
51
口口口口 |①---|
口口口口 |----|
口②①口 |②---|
口口口口 |----|
52
口口口口 |①---|
口①①口 |--②-|
口④③口 |----|
口②②口 |③-④-|
53
口口口口 |----|
口口口口 |----|
口口口口 |----|
口口口口 |----|
54
口口口口 |①---|
口②口口 |②---|
①④③① |③---|
口口口口 |④---|
55
口口口口 |①---|
口口①口 |----|
口口口口 |----|
口口口口 |----|
56
口口口口 |①---|
口口①口 |----|
口口口口 |----|
口口口口 |----|
57
口口口① |①---|
口口口口 |----|
口口口口 |----|
口口口口 |----|
58
口口口口 |①---|
口口①口 |----|
口口口口 |----|
口口口口 |----|
59
口口口① |①---|
口口口② |②---|
口口口③ |③---|
口口口口 |----|
60
口①口口 |①---|
口②口口 |②---|
口③口口 |③---|
口口口口 |----|
61
口口①口 |①---|
口口②口 |②---|
口口③口 |③---|
口口口口 |----|
62
①口口口 |①---|
②口口口 |②---|
③口口口 |③---|
口口口口 |----|
63
口口口口 |①---|
口口口口 |②---|
口口口口 |③---|
①②③口 |----|
64
口口口口 |①---|
口口口口 |②---|
口③②① |③---|
口口口口 |----|
65
口口口口 |①---|
①②③口 |②---|
口口口口 |③---|
口口口口 |----|
66
口③②① |①---|
口口口口 |②---|
口口口口 |③---|
口口口口 |----|
67
①口口口 |①---|
②口口口 |②---|
③口口口 |③---|
④口口口 |④---|
68
口口口口 |①---|
口口口口 |②---|
口口口④ |③---|
口①②③ |④---|
69
口④③② |①---|
口口口① |②---|
口口口口 |③---|
口口口口 |④---|
70
口口口口 |①---|
口①④口 |②---|
口②③口 |③---|
口口口口 |④---|
71
口口口口 |①---|
口①口① |----|
口口口口 |----|
口口口口 |----|


不确定度: 0

最終更新:2012年11月14日 16:03