となりのトトロ feat.sayurina
新井大樹

ADVANCED

Level: 6
BPM: 128
Notes: 428

1
口口口口 |----|
①②③④ |----|
口口口口 |----|
口口口口 |①②③④|
2
口口口口 |①---|
口口口口 |----|
口口口① |----|
口口口口 |----|
3
口口口口 |①---|
口口口口 |----|
②③口口 |----|
①口口① |--②③|
4
口口口口 |①---|
口口口口 |----|
口口①口 |----|
口口口口 |----|
5
①口③② |①---|
①口③② |②---|
④⑤⑥⑦ |③---|
口口口口 |④⑤⑥⑦|
6
口口③② |①---|
口口口① |----|
口口口口 |----|
口口口口 |--②③|
7
口①口口 |①---|
②③口口 |----|
口口口口 |----|
口口口口 |--②③|
8
口②口② |①---|
口口①口 |----|
口口口口 |----|
口口口口 |②---|
9
口口口口 |①---|
①口①口 |----|
口口口口
口口口口

口口口口
②③④⑤
口口口口 |----|
口口口口 |②③④⑤|
10
口口口口 |①---|
口口口口 |----|
口口口① |----|
口口口口 |----|
11
口口口口 |①---|
③口③口 |--②-|
口②口② |----|
①口①口 |③---|
12
②①②① |①---|
口③口③ |--②-|
口口口口 |----|
口口口口 |③---|
13
口③口① |①---|
④口②口 |②---|
口③口① |③---|
④口②口 |④---|
14
口口口口 |①---|
口②③口 |----|
①口口① |----|
口口口口 |--②③|
15
①口口① |①---|
口口口口 |--②-|
口③③口 |----|
口②②口 |③---|
16
②口口② |①---|
①口口① |----|
①口口① |----|
口口口口 |--②-|
17
口口口口 |--①-|
①口口① |②---|
②口口② |--③-|
③⑤④③ |--④⑤|
18
口口口② |①---|
口口③口 |②---|
①④口① |③---|
⑤口口口 |④-⑤-|
19
口口口口 |----|
口口口口 |--①-|
口口②① |----|
口口①② |②---|
20
①口口口 |----|
口②口口 |①---|
口口③口 |②---|
口口口④ |③-④-|
21
口口口口 |----|
口口口口 |--①-|
①②口口 |----|
②①口口 |②---|
22
口口口① |①---|
口口②口 |②---|
口口口③ |③---|
⑤口④口 |④-⑤-|
23
口③口口 |----|
②口口口 |①---|
口①口口 |②---|
口口口口 |③---|
24
口口口口 |①---|
口口①口 |--②-|
口②口口 |③---|
口口③口 |----|
25
口①②③ |①②③-|
口⑩⑨⑧ |----|
④⑤⑥⑦ |④⑤⑥⑦|
口口口口 |⑧⑨⑩-|
26
口口①口 |----|
口③口④ |①---|
口口②口 |②---|
口口口口 |③-④-|
27
口口口口 |----|
口口口口 |----|
口③口① |①---|
口口②口 |②-③-|
28
口②口口 |①---|
④口⑤口 |②---|
口③①口 |③---|
口口口口 |④-⑤-|
29
口口口口 |----|
口①口口 |--①-|
②口②口 |----|
口①口口 |②---|
30
口口②① |①-②-|
口口④③ |③-④-|
⑥⑤口口 |⑤-⑥-|
⑧⑦口口 |⑦-⑧-|
31
口口口口 |----|
口口口口 |----|
口口口口 |--①-|
①②③口 |②-③-|
32
口②②口 |①---|
⑥口口⑤ |②---|
④口口③ |③-④-|
口口口① |⑤-⑥-|
33
口口口口 |----|
口口口口 |----|
口口口口 |----|
口口口口 |----|
34
口口口口 |①---|
④⑤⑤④ |②---|
③②②③ |③---|
口①①口 |④-⑤-|
35
②①①② |--①-|
口口口口 |②---|
口口口口
口口口口

⑥口口⑥
⑤口口⑤
④口口④ |③-④-|
③口口③ |⑤-⑥-|
36
口口口口 |①②--|
口④③口 |--③④|
⑥口口⑤ |----|
口②①口 |⑤⑥--|
37
②口口② |--①-|
口①①口 |②---|
口口口口 |③-④-|
③④⑤⑥ |⑤-⑥-|
38
口②口口 |①---|
口①①口 |②-③-|
口②③③
口口口口

⑤口⑤口
口口④口
口口口口 |--④-|
口口④口 |--⑤-|
39
口口口口 |--①-|
口口口口 |----|
①口①口 |----|
口口口口 |----|
40
口口口口 |①---|
口②③③ |②-③-|
口①①口
口②口口

口口④口
口口口口
口口④口 |--④-|
⑤口⑤口 |--⑤-|
41
口口口口 |--①-|
①口①口 |----|
口口口口 |----|
口口口口 |----|
42
①口②口 |----|
口③口口 |①---|
①口②口 |②---|
口③口口 |③---|
43
口②口① |①---|
口口口口 |②-③-|
口②口①
口口③③

口口口④
口口口口
口口口口 |----|
口口口口 |--④-|
44
口口口口 |①-②-|
口口①口 |③-④-|
口②口口
③④口口

口口口口
口⑧⑧口
口口口⑦ |⑤-⑥-|
口口⑤⑥ |⑦-⑧-|
45
口口口口 |----|
口口口口 |----|
口口口口 |①-②-|
①②③④ |③-④-|
46
口②口口 |①---|
口①①口 |②-③-|
口②③③
口口口口

⑤口⑤口
口口④口
口口口口 |--④-|
口口④口 |--⑤-|
47
口口口口 |--①-|
口口口口 |----|
①口①口 |----|
口口口口 |----|
48
口口口口 |①---|
口②③③ |②-③-|
口①①口
口②口口

口口④口
口口口口
口口④口 |--④-|
⑤口⑤口 |--⑤-|
49
口口口口 |--①-|
①口①口 |----|
口口口口 |----|
口口口口 |----|
50
口②②口 |①---|
④口口③ |②---|
口⑥⑤口 |③-④-|
口①①口 |⑤-⑥-|
51
口④口口 |①---|
口①①口 |--②-|
③口口② |③---|
口口口口 |--④-|
52
⑧口⑦⑧ |①-②-|
④④①① |③-④-|
⑤⑤②② |⑤-⑥-|
⑥⑥③③ |⑦-⑧-|
53
口口口口 |①②③-|
④①②③ |--④-|
口⑪⑩⑨ |⑤⑥⑦⑧|
⑤⑥⑦⑧ |⑨⑩⑪-|
54
①②口① |①---|
口口口口 |②-③-|
③口口口
口口口口

口口口⑥
口⑤口口
口口⑦口 |④-⑤-|
口口④口 |⑥-⑦-|
55
②①②口 |①---|
口③口③ |②---|
④口④口 |③---|
口⑤口⑤ |④-⑤-|
56
口口口口 |----|
口口口口 |----|
①②口口 |----|
口口口口 |--①②|
57
口②口② |①---|
③口③口 |②---|
口④①④ |③---|
⑤口⑤口 |④-⑤-|
58
①口口口 |----|
②口口口 |----|
③口口口 |----|
④口口口 |①②③④|
59
口③口① |①---|
④口②⑤ |②---|
口③口① |③---|
④口②⑤ |④-⑤-|
60
③口①口 |----|
口②口口 |①---|
③口①口 |②---|
口②口口 |③---|
61
②口②口 |①---|
口②口口 |----|
口①口① |②---|
口口①口 |----|
62
③⑦②⑥ |①-②-|
③⑦②⑥ |③-④-|
①⑤⑧④ |⑤-⑥-|
①⑤⑧④ |⑦-⑧-|
63
口②口② |①---|
口③口③ |----|
①口口① |----|
①口口① |--②③|
64
口口口口 |①---|
②口②口 |----|
③①③① |----|
口口口口 |--②③|
65
口③口③ |①---|
口口口口 |--②-|
口②口② |----|
①口①口 |③---|
66
①口①口 |①---|
口②口② |②---|
③口③口 |③---|
口④口④ |④---|
67
口口口口 |①---|
②口口② |----|
③口口③ |----|
①口①口 |--②③|
68
口口口口 |①---|
口口口口 |--②-|
口③③口 |----|
①②②① |③---|
69
①口口① |①---|
口①①口 |----|
口口口口
口口口口

口口口口
②口②口
口口口口 |----|
口口口口 |--②-|
70
口口口口 |--①-|
口口口口 |②---|
②②②② |----|
①口①口 |----|
71
口口口口 |①---|
①口口① |----|
口口口口 |----|
①口口① |----|


不确定度: 0

最終更新:2012年11月14日 16:03