となりのトトロ feat.sayurina
新井大樹

EXTREME

Level: 8
BPM: 128
Notes: 613

1
口口口口 |----|
①②③口 |----|
口口④口 |----|
口口口口 |①②③④|
2
①②③④ |①-②-|
口口口口 |③-④-|
口口口① |--⑤-|
④⑤⑥口 |⑥---|
3
①口口④ |①-②-|
⑥口口③ |③-④-|
⑤口口② |--⑤-|
④⑦⑧① |⑥-⑦⑧|
4
①②③④ |①-②-|
口口口口 |③-④-|
口口口口 |--⑤-|
④⑤⑥① |⑥---|
5
口口⑦口 |①---|
④⑤⑥口 |②---|
①③口② |③---|
①③口② |④⑤⑥⑦|
6
④⑤⑥① |①-②-|
口口口口 |③-④-|
口口口口 |----|
①②③④ |--⑤⑥|
7
④口口① |①-②-|
③口口口 |③-④-|
②口口口
①口口④

口口口口
口口口口
⑤⑥口口 |----|
口口口口 |--⑤⑥|
8
④口口① |①-②-|
口口⑤② |③-④-|
口⑤①③ |----|
口口口④ |⑤---|
9
口口口口 |①---|
口①口口 |----|
口口①口
口口口口

口口口口
②③④⑤
口口口口 |----|
口口口口 |②③④⑤|
10
②口口① |①-②-|
③口口口 |--③-|
④口口① |--④-|
⑤口口口 |--⑤-|
11
②口口口 |①-②-|
③口⑤⑤ |--③-|
④③③口 |--④-|
⑥口①① |⑤-⑥-|
12
②①①③ |①-②-|
③口口口 |--③-|
④口口口 |--④-|
⑥⑤口口 |⑤-⑥-|
13
②口①口 |①-②-|
④①⑤③ |③-④-|
⑥⑤③⑦ |⑤-⑥-|
⑧口⑦口 |⑦-⑧-|
14
②口口口 |①-②-|
③⑤⑥口 |--③-|
④口口口 |--④-|
⑤①口① |--⑤⑥|
15
②口口口 |①-②-|
③口口① |--③-|
④口③⑤ |--④-|
⑥口⑤③ |⑤-⑥-|
16
口②①口 |①②③④|
口④③口 |⑤⑥⑦⑧|
口⑥⑤口
口⑧⑦口

口⑮⑮口
⑭口口⑬
⑫口口⑪ |⑨⑩⑪⑫|
⑩口口⑨ |⑬⑭⑮-|
17
③口口③ |--①-|
口②②口 |②-③-|
口口口口
口①①口

口口口口
口口口口
口④④口 |--④-|
口⑥⑤口 |--⑤⑥|
18
口口口② |①---|
口口口口 |②---|
①口口①
口口口口

口④③口
口口⑤③
口口口④ |③---|
口口口口 |④-⑤-|
19
口口口口 |①---|
②②口口 |--②-|
③③口口 |----|
①①口口 |③---|
20
①②③口 |----|
②④口口 |①---|
③口口口 |②---|
口口口口 |③-④-|
21
口口口口 |①---|
口口③③ |--②-|
口口②② |----|
口口①① |③---|
22
口口①① |①---|
②②口口 |②---|
口口③③ |③---|
④口口⑤ |④-⑤-|
23
③③口口 |----|
口口②② |①---|
①①口口 |②---|
口口口口 |③---|
24
口口口口 |①---|
②口口② |--②-|
口①①④ |③---|
③口口③ |--④-|
25
口口口口 |①②③-|
口①②③ |--④-|
口口口口
口口口④

⑤口口口
⑥⑪⑩⑨
⑦口口口 |⑤⑥⑦⑧|
⑧口口口 |⑨⑩⑪-|
26
口口口口 |----|
口口口③ |①---|
口口④② |②---|
口③②① |③-④-|
27
①②③口 |①---|
②口④口 |②---|
③⑤口口 |③---|
口口口口 |④-⑤-|
28
口口口口 |①---|
④口口口 |②---|
③⑤①口 |③---|
②③④口 |④-⑤-|
29
口口①口 |①---|
口③②① |--②-|
口口③口 |----|
口口口口 |③---|
30
⑤口口① |①-②-|
⑥口口② |③-④-|
⑦口口③ |⑤-⑥-|
⑧口口④ |⑦-⑧-|
31
口①口口 |----|
口②③口 |----|
口③②口 |--①-|
口口①口 |②-③-|
32
②⑤①③ |①---|
口⑥口④ |②---|
④口⑥口 |③-④-|
③①⑤② |⑤-⑥-|
33
口口口口 |----|
口口口口 |----|
口口口口 |----|
口口口口 |----|
34
①口口② |①---|
口③④口 |②---|
口①②口 |③---|
③⑤⑤④ |④-⑤-|
35
口①①口 |--①-|
②口口② |②---|
口口口口
口口口口

⑤⑥⑥⑤
口⑤⑤口
③④④③ |③-④-|
口③③口 |⑤-⑥-|
36
⑤口口⑥ |①②--|
①口口② |--③④|
口③④口 |----|
①③④② |⑤⑥--|
37
③④⑤⑥ |--①-|
口①①口 |②---|
②口口② |③-④-|
口②②口 |⑤-⑥-|
38
②口口口 |①---|
①①口③ |②-③-|
③口①①
口口口②

口口口口
口⑤④口
口④⑤口 |--④-|
口口口口 |--⑤-|
39
口口②口 |--①-|
①口口② |--②-|
②口口①
口②口口

口③口口
③口口口
口口口③ |----|
口口③口 |③---|
40
口口口② |①---|
③口①① |②-③-|
①①口③
②口口口

口口口口
口④⑤口
口⑤④口 |--④-|
口口口口 |--⑤-|
41
口②口口 |--①-|
②口口① |--②-|
①口口②
口口②口

口口③口
口口口③
③口口口 |----|
口③口口 |③---|
42
①②口口 |①-②-|
④口⑦⑦ |③-④-|
口⑥⑤⑤ |⑤-⑥-|
⑧口③③ |⑦-⑧-|
43
口口①① |①---|
②②口口 |②-③-|
③③③③ |----|
④口②② |--④-|
44
口口口口 |①-②-|
⑧⑧⑧⑧ |③-④-|
④⑤⑦⑥ |⑤-⑥-|
口①③② |⑦-⑧-|
45
①②③④ |----|
口口口口 |----|
口口口口 |①-②-|
口口口口 |③-④-|
46
②口口口 |①---|
①①口③ |②-③-|
③口①①
口口口②

口口口口
口⑤④口
口④⑤口 |--④-|
口口口口 |--⑤-|
47
口口②口 |--①-|
①口口② |--②-|
②口口①
口②口口

口③口口
③口口口
口口口③ |----|
口口③口 |③---|
48
口口口② |①---|
③口①① |②-③-|
①①口③
②口口口

口口口口
口④⑤口
口⑤④口 |--④-|
口口口口 |--⑤-|
49
口②口口 |--①-|
②口口① |--②-|
①口口②
口口②口

口口③口
口口口③
③口口口 |----|
口③口口 |③---|
50
口②口② |①---|
口口口口 |②---|
口口口口
①口①口

③口③口
④口④口
⑤口⑤口 |③-④-|
⑥口⑥口 |⑤-⑥-|
51
③①③① |①---|
口口口口 |--②-|
口口口口 |③---|
口②④② |--④-|
52
口⑧⑧① |①-②-|
④①②③ |③-④-|
⑥⑤④① |⑤-⑥-|
④⑦⑦口 |⑦-⑧-|
53
①口口口 |①②③-|
口②口④ |--④-|
口口③口
口口口口

口口⑨口
口口⑩口
口口⑪口 |⑤⑥⑦⑧|
⑤⑥⑦⑧ |⑨⑩⑪-|
54
②①口① |①---|
口口口③ |②-③-|
口①口①
口口口口

口口⑥口
口口口口
口⑦口⑤ |④-⑤-|
口④口口 |⑥-⑦-|
55
①口口② |①---|
口口③口 |②---|
口④口口 |③---|
⑤口口口 |④-⑤-|
56
①口口② |①---|
口①③口 |----|
口口①口 |----|
口口口① |--②③|
57
②口口口 |①---|
口③口口 |②---|
口①④口 |③---|
口口口⑤ |④-⑤-|
58
口口口① |①---|
口口①口 |----|
口①口口
①口口口

口②口口
口③口口
口④口口 |----|
口⑤口口 |②③④⑤|
59
口口口① |①---|
口口口② |②---|
口口口③ |③---|
⑤⑥口④ |④-⑤⑥|
60
④口⑤口 |①---|
③口⑥口 |②---|
②口口口 |③---|
口口①口 |④-⑤⑥|
61
口口口口 |①---|
口②口口 |--②③|
口③①口 |④---|
口④⑤⑤ |⑤---|
62
①②③口 |①②③④|
口⑥⑤④ |⑤⑥⑦⑧|
⑦⑧口口
口口口口

⑬⑭⑮⑯
口口口口
口口⑨口 |⑨⑩⑪⑫|
口⑫⑪⑩ |⑬⑭⑮⑯|
63
口口口口 |①---|
口①①口 |----|
①口口①
口口口口

口口口口
口口②口
口口③口 |----|
口口口口 |--②③|
64
口④⑤口 |①---|
①①口口 |--②-|
②②口口 |----|
③③①口 |③-④⑤|
65
口口口① |①---|
口①②③ |--②-|
口①②③ |----|
口口口口 |③---|
66
①口⑤口 |①-②-|
②③⑥⑦ |③-④-|
①④⑤⑧ |⑤-⑥-|
口③口⑦ |⑦-⑧-|
67
①口口① |①---|
②口口② |----|
③口口③ |----|
口口口口 |--②③|
68
口口口口 |①---|
口口口口 |--②-|
口③③口 |----|
①②②① |③---|
69
②②②② |①---|
①①①① |----|
口口口口 |----|
口口口口 |--②-|
70
口口口口 |--①-|
口口口口 |②---|
②②②②
①①①①

③口口③
口口口口
口⑥⑤口 |③---|
④口口④ |④-⑤⑥|
71
口口口口 |①---|
口①①口 |----|
①口口① |----|
口口口口 |----|


不确定度: 0

最終更新:2012年11月14日 16:03