タイムラグ
つしまみれ

ADVANCED

Level: 6
BPM: 192-196
Notes: 336

全程BPM: 192-196飄忽不定
1
口口口口 |----|
口口口口 |----|
口口口口 |----|
口口口口 |----|
2
①口②口 |①---|
口③口④ |②-③-|
口口口口 |④---|
口口口口 |----|
3
口口②口 |①-②-|
口③口口 |③-④-|
口口④口 |----|
口①口口 |----|
4
口②口① |①---|
口口③口 |②-③-|
口④口口 |④---|
口口口口 |----|
5
口口口口 |①-②-|
③口口② |③-④-|
①口口④ |----|
口口口口 |----|
6
口口口口 |①---|
口口口口 |②-③-|
口口口口 |④---|
①③④② |----|
7
口口口① |①-②-|
口②口口 |③-④-|
口口口③ |----|
口④口口 |----|
8
口口口口 |①---|
口口口口 |②-③-|
③①②④ |④---|
口口口口 |----|
9
口①口口 |①-②-|
口口口② |③-④-|
口③口口 |----|
口口口④ |----|
10
①口口口 |①---|
口②③口 |②-③-|
口⑤⑥口 |④---|
④口口口 |⑤-⑥-|
11
口口口① |①---|
口③②口 |②-③-|
口⑥⑤口 |④---|
口口口④ |⑤-⑥-|
12
口口口口 |①---|
口口口⑥ |②-③-|
口口口⑤ |④---|
①②③④ |⑤-⑥-|
13
口②口① |①---|
③口口口 |②---|
口口口口 |③---|
④口口口 |④---|
14
口口口口 |①---|
口③②④ |②-③-|
口⑥⑤① |④---|
口口口口 |⑤-⑥-|
15
口口口口 |①---|
④②③口 |②-③-|
①⑤⑥口 |④---|
口口口口 |⑤-⑥-|
16
口⑥⑤④ |①---|
口口口③ |②-③-|
口口口② |④---|
口口口① |⑤-⑥-|
17
①口口口 |①---|
口口口口 |②---|
②口口口 |③---|
口③口④ |④---|
18
①①口口 |①---|
②②口口 |②---|
口口③③ |③---|
口口④④ |④---|
19
口口④④ |①---|
口口③③ |②---|
②②口口 |③---|
①①口口 |④---|
20
①①口口 |①---|
②②口口 |②---|
口口③③ |③---|
口口④④ |④---|
21
①口口① |①---|
口②②口 |②---|
口③③口 |③---|
④口口④ |④---|
22
口口①① |①---|
口口②② |②---|
③③口口 |③---|
④④口口 |④---|
23
①①口口 |①---|
②②口口 |②---|
口口③③ |③---|
口口④④ |④---|
24
口口①① |①---|
口口②② |②---|
③③口口 |③---|
④④口口 |④---|
25
①口口① |①---|
口②②口 |②---|
口③③口 |③---|
④口口④ |④---|
26
①口口口 |①---|
口②口⑤ |--②-|
口口口④ |--③-|
口口口③ |④-⑤-|
27
口口口① |①---|
⑤口②口 |--②-|
④口口口 |--③-|
③口口口 |④-⑤-|
28
①口口① |①---|
④②②④ |--②-|
③口口③ |--③-|
口口口口 |--④-|
29
①口口① |①---|
口②②口 |--②-|
④②②口 |--③-|
③口口口 |④---|
30
①口口口 |①---|
口②口⑤ |--②-|
口口口④ |--③-|
口口口③ |④-⑤-|
31
口口口① |①---|
口口②口 |--②-|
口口口口 |----|
口口口口 |----|
32
口口口① |①---|
②口口口 |②---|
口口口③ |③---|
④口口口 |④---|
33
④口口口 |①---|
口口口③ |②---|
②口口口 |③---|
口口口① |④---|
34
口③口口 |①---|
②①④口 |②---|
口口口口 |③---|
口口口口 |④---|
35
口口口口 |①---|
④口口口 |②---|
口③口① |③---|
口口②口 |④---|
36
①口口口 |①---|
口②口口 |②---|
口口③口 |③---|
口口口④ |④---|
37
③口④口 |①---|
口⑤口① |②---|
②口口② |③---|
口②②口 |④-⑤-|
38
口口③口 |①---|
口④口① |----|
口口⑤口 |②-③-|
口②口口 |④-⑤-|
39
口②口① |----|
口口③口 |----|
口口口口 |①---|
口口口口 |②-③-|
40
口口口口 |①---|
④口口③ |----|
②①口⑤ |②-③-|
口口口口 |④-⑤-|
41
口口口口 |----|
口口口口 |----|
口口口口 |①---|
①③口② |②-③-|
42
口口口② |①---|
口③口口 |----|
口口口④ |②-③-|
口⑤①口 |④-⑤-|
43
口口口口 |----|
口口口口 |----|
③①②口 |①---|
口口口口 |②-③-|
44
口③口口 |--①-|
口口②④ |--②-|
口⑤口① |③-④-|
口口口⑥ |⑤-⑥-|
45
③口口② |①---|
口④口口 |②---|
口口口口 |③---|
①口口口 |--④-|
46
口口口④ |--①-|
口口⑤③ |②-③-|
口口口② |④---|
口口口① |⑤---|
47
口口口口 |①-②-|
④①口口 |③-④-|
③口口口
②口口口

⑤口口⑤
口⑥⑥口
口口口口 |⑤---|
口口口口 |--⑥-|
48
④口口④ |--①-|
③⑤⑤③ |②-③-|
②⑤⑤② |④---|
①口口① |--⑤-|
49
③口口口 |----|
②④口口 |①-②-|
①口口口 |③---|
口口口口 |--④-|
50
口口口④ |--①-|
口口⑤③ |②-③-|
口口口② |④---|
口口口① |--⑤-|
51
口口口① |----|
②口口口 |----|
口口口口 |①---|
口口口口 |②---|
52
口口口口 |①---|
口口口口 |②---|
④口口① |③---|
②口口③ |④---|
53
②④口口 |①---|
③口口① |②---|
口口口口 |③---|
口口口口 |④---|
54
口口口口 |①---|
口口①口 |②---|
口④口② |③---|
口口③口 |④---|
55
②口口口 |①---|
①③口口 |②---|
口口④口 |③---|
口口口口 |④---|
56
④③③④ |①---|
口口口口 |②---|
口口口② |③---|
口口口① |④---|
57
口③口口 |①---|
①口口① |②---|
②口口② |----|
口口口口 |③---|
58
口口口口 |①---|
口口①口 |②---|
口④口② |③---|
口口③口 |④---|
59
②口口口 |①---|
①③口口 |②---|
口口④口 |③---|
口口口口 |④---|
60
④③③④ |①---|
口口口口 |②---|
口口口② |③---|
口口口① |④---|
61
口口口口 |①---|
①口口① |②---|
②口口② |----|
③口口③ |③---|
62
③②②③ |①---|
口口口口 |②---|
口①①口 |----|
口口口口 |③---|
63
口口口口 |①---|
①口口① |②---|
②口口② |----|
③口口③ |③---|
64
②②②② |①---|
口口口口 |②---|
口①①口 |----|
口口口口 |----|


不确定度: 0

最終更新:2012年11月14日 16:01