タイムラグ
つしまみれ

EXTREME

Level: 7
BPM: 192-196
Notes: 394

全程BPM: 192-196飄忽不定
1
口口口口 |----|
口口口口 |----|
口口口口 |----|
口口口口 |----|
2
①口②口 |①---|
口③口④ |②-③-|
⑤⑦口口 |④-⑤-|
口口口⑥ |⑥-⑦-|
3
口口②② |①-②-|
③③口口 |③-④-|
口口④④ |----|
①①口口 |----|
4
口②口① |①---|
口口③口 |②-③-|
口④⑦口 |④-⑤-|
口⑤⑥口 |⑥-⑦-|
5
③口口② |①-②-|
③口口② |③-④-|
①口口④ |----|
①口口④ |----|
6
口口口口 |①---|
口口口⑦ |②-③-|
口⑥⑤口 |④-⑤-|
①③②④ |⑥-⑦-|
7
①口口① |①-②-|
口②②口 |③-④-|
③口口③ |----|
口④④口 |----|
8
口口口口 |①---|
口口⑦口 |②-③-|
③①②④ |④-⑤-|
口⑤⑥口 |⑥-⑦-|
9
口①①口 |①-②-|
②口口② |③-④-|
口③③口 |----|
④口口④ |----|
10
①口口口 |①---|
口⑤⑥口 |②-③-|
口②③口 |④---|
④口口口 |⑤-⑥-|
11
口口口① |①---|
口⑥⑤口 |②-③-|
口③②口 |④---|
口口口④ |⑤-⑥-|
12
口口口口 |①---|
口口口⑥ |②-③-|
口口口⑤ |④---|
①②③④ |⑤-⑥-|
13
④③②① |①-②-|
⑤口口口 |③-④-|
⑥口口口 |⑤-⑥-|
⑦口口口 |⑦---|
14
口③②口 |①---|
口口口④ |②-③-|
口口口① |④---|
口⑥⑤口 |⑤-⑥-|
15
口②③口 |①---|
④口口口 |②-③-|
①口口口 |④---|
口⑤⑥口 |⑤-⑥-|
16
口⑥⑤④ |①---|
口口口③ |②-③-|
口口口② |④---|
口口口① |⑤-⑥-|
17
①口口口 |①-②-|
②口口口 |③-④-|
③口口口 |⑤-⑥-|
④⑤⑥⑦ |⑦---|
18
①口口口 |①---|
②口口口 |②---|
口口口④ |③---|
口口③口 |④---|
19
口口口③ |①---|
口口④口 |②---|
②口口口 |③---|
①口口口 |④---|
20
口①④口 |①---|
①口口④ |②---|
③口口② |③---|
口③②口 |④---|
21
⑦口口口 |①-②-|
⑥⑤口口 |③-④-|
口④③口 |⑤-⑥-|
②口口① |⑦---|
22
口口口① |①---|
口口口② |②---|
③口口口 |③---|
口④口口 |④---|
23
口①口口 |①---|
口②口口 |②---|
口口口③ |③---|
口口④口 |④---|
24
口③①口 |①---|
③口口① |②---|
②口口④ |③---|
口②④口 |④---|
25
②口口① |①-②-|
口④③口 |③-④-|
⑦⑥⑤口 |⑤-⑥-|
口口口口 |⑦---|
26
①口口口 |①---|
口②口⑤ |--②-|
口口口④ |--③-|
口口口③ |④-⑤-|
27
口口口① |①---|
⑤口②口 |--②-|
④口口口 |--③-|
③口口口 |④-⑤-|
28
①口口口 |①---|
④②口④ |--②-|
③口口③ |--③-|
口口口口 |--④-|
29
①口口① |①---|
口②②口 |--②-|
④口口口 |--③-|
③口口口 |④---|
30
①口口口 |①---|
口②口⑤ |--②-|
口口口④ |--③-|
口口口③ |④-⑤-|
31
口口口① |①---|
口口②口 |--②-|
口口口口 |----|
口口口口 |----|
32
⑧口口① |①-②-|
②口口⑦ |③-④-|
⑥口口③ |⑤-⑥-|
④口口⑤ |⑦-⑧-|
33
口④①口 |①-②-|
口⑥③口 |③-④-|
口②⑦口 |⑤-⑥-|
口⑧⑤口 |⑦-⑧-|
34
①③口口 |①---|
②口④口 |②---|
口口口口 |③---|
口口口口 |④---|
35
口口口口 |①---|
④口口口 |②---|
口③口① |③---|
口口②口 |④---|
36
①口口口 |①---|
口②口口 |②---|
口口③口 |③---|
口口口④ |④---|
37
③口④口 |①---|
②⑤口① |②---|
②②口口 |③---|
②②②口 |④-⑤-|
38
口口⑥⑥ |①-②-|
⑦⑦口① |③-④-|
②④⑧⑧ |⑤-⑥-|
⑤⑤口③ |⑦-⑧-|
39
口②口① |----|
口口③口 |----|
口④口口 |①-②-|
口口口口 |③-④-|
40
⑥口口⑤ |--①-|
⑥口口⑤ |②-③-|
④口③⑦ |④-⑤-|
④①②⑦ |⑥-⑦-|
41
口口口口 |----|
口口口口 |----|
口口口口 |①---|
①③②口 |②-③-|
42
⑤口口⑤ |①-②-|
口⑥⑥④ |③-④-|
⑦③②⑦ |⑤-⑥-|
口⑧⑧① |⑦-⑧-|
43
口口口口 |----|
口口口口 |----|
③①②口 |①---|
口口口口 |②-③-|
44
口③③口 |--①-|
④口②④ |--②-|
口⑤⑤口 |③-④-|
⑥①口⑥ |⑤-⑥-|
45
③口口② |①---|
口④口口 |②---|
口口口口 |③---|
口①①口 |--④-|
46
口口口④ |--①-|
口口⑤③ |②-③-|
口口口② |④---|
口口口① |⑤---|
47
口口口口 |①-②-|
④①口口 |③-④-|
③口口口
②口口口

⑤口口口
口⑥口口
口口口口 |⑤---|
口口口口 |--⑥-|
48
④口口④ |--①-|
③⑤⑤③ |②-③-|
②口口② |④---|
①口口① |--⑤-|
49
③口口口 |----|
②④口口 |①-②-|
①口口口 |③---|
口口口口 |--④-|
50
口口口④ |--①-|
口口⑤③ |②-③-|
口口口② |④---|
口口口① |--⑤-|
51
口口口① |----|
②口口口 |----|
口口口③ |①-②-|
④口口口 |③-④-|
52
④⑧⑤口 |①-②-|
口口⑦③ |③-④-|
②⑥口口 |⑤-⑥-|
口口口① |⑦-⑧-|
53
⑤⑥口口 |①-②-|
口②口口 |③-④-|
口口③口 |⑤---|
口④①口 |⑥---|
54
口口口口 |①---|
口口①口 |②---|
口④口② |③---|
口口③口 |④---|
55
②口口口 |①---|
①③口口 |②---|
口口④口 |③---|
口口口口 |④---|
56
口③③口 |①---|
口④④口 |②---|
口口口② |③---|
口口口① |④---|
57
口③口口 |①---|
②口口② |②---|
口②②口 |----|
②①①② |③---|
58
口口口口 |①---|
口口①口 |②---|
口④口② |③---|
口口③口 |④---|
59
②口口口 |①---|
①③口口 |②---|
口口④口 |③---|
口口口口 |④---|
60
口口口口 |①---|
口口④口 |②---|
口口口③ |③---|
口口②① |④---|
61
口口口口 |①---|
口口口口 |②---|
③①口口 |----|
②③口口 |③---|
62
口口②口 |①---|
口①口② |②---|
口③①口 |----|
口口口口 |③---|
63
口①②② |①---|
③口①② |②---|
口③口① |----|
口口③口 |③---|
64
①②②② |①---|
口①②② |②---|
口口①② |----|
口口口① |----|


不确定度: 0

最終更新:2012年11月14日 16:01