Sunshine Girl
moumoon

BASIC

Level: 1
BPM: 103
Notes: 127

1
口口口口 |----|
口口口口 |----|
口口口口 |----|
口口口口 |----|
2
口口口口 |----|
口口口口 |----|
口口口口 |----|
口口口口 |----|
3
口口口口 |----|
口口口口 |----|
口口口口 |----|
口口口口 |----|
4
口口口口 |①---|
口②①口 |----|
口口口口 |②---|
口口口口 |----|
5
②口口① |①---|
口口口口 |----|
口口口口 |②---|
口口口口 |----|
6
④口口② |①---|
③口口① |②---|
口口口口 |③---|
口口口口 |④---|
7
口口口口 |①---|
口口口口 |----|
口②①口 |②---|
口口口口 |----|
8
口④③口 |①---|
②口口① |②---|
口口口口 |③---|
口口口口 |④---|
9
口口口口 |①---|
口口口口 |----|
口②①口 |②---|
口口口口 |----|
10
口①①口 |①---|
②口口② |----|
口口口口 |②---|
口口口口 |----|
11
口口口口 |①---|
口③②口 |----|
口①①口 |②---|
口口口口 |③---|
12
①口口① |①---|
口②②口 |----|
口口口口 |②---|
口口口口 |----|
13
口口口口 |①---|
口口口口 |----|
③口口② |②---|
口①①口 |③---|
14
口①①口 |①---|
②口口② |----|
口口口口 |②---|
口口口口 |----|
15
口口口口 |①---|
口③②口 |----|
口①①口 |②---|
口口口口 |③---|
16
①口口① |①---|
口②②口 |----|
口口口口 |②---|
口口口口 |----|
17
口口口口 |①---|
口口口口 |----|
②③④口 |②-③-|
口①①口 |④---|
18
口口口口 |①---|
口口口口 |----|
口口口口 |②---|
口②①口 |----|
19
口口口口 |①---|
口口口口 |②---|
④口口③ |③---|
②口口① |④---|
20
口口口口 |①---|
口②①口 |----|
口口口口 |②---|
口口口口 |----|
21
口③口① |①---|
④口②口 |②---|
口口口口 |③---|
口口口口 |④---|
22
口口口口 |①---|
口口口口 |----|
口②①口 |②---|
口②①口 |----|
23
口口①口 |①---|
口②口口 |②---|
口口③口 |③---|
口④口口 |④---|
24
①口口① |①---|
口口口口 |----|
口口口② |②---|
口口口口 |----|
25
口口口口 |①---|
口口④口 |②---|
①③口口 |③---|
口口②口 |④---|
26
①口口② |①---|
口口口口 |②---|
口④③口 |③---|
口口口口 |④---|
27
④口口② |①---|
③口口① |②---|
口口口口 |③---|
口口口口 |④---|
28
口口口口 |①---|
口口口口 |----|
②口口① |②---|
口口口口 |----|
29
④口口③ |①---|
口②①口 |②---|
口口口口 |③---|
口口口口 |④---|
30
口口口口 |①---|
②口口① |----|
口口口口 |②---|
口口口口 |----|
31
口①①口 |①---|
②口口② |----|
口口口口 |②---|
口口口口 |----|
32
口口口口 |①---|
口③②口 |----|
口①①口 |②---|
口口口口 |③---|
33
①口口① |①---|
口②②口 |----|
口口口口 |②---|
口口口口 |----|
34
口口口口 |①---|
口口口口 |----|
③口口② |②---|
口①①口 |③---|
35
口①①口 |①---|
②口口② |----|
口口口口 |②---|
口口口口 |----|
36
口口口口 |①---|
口③②口 |----|
口①①口 |②---|
口口口口 |③---|
37
①口口① |①---|
口②②口 |----|
口口口口 |②---|
口口口口 |----|
38
口口口口 |①---|
口口口口 |----|
口④③② |②-③-|
口①①口 |④---|
39
口①①口 |①---|
口口口口 |----|
口口口口 |----|
口口口口 |----|


不确定度: 0

最終更新:2012年11月14日 15:58