Sunshine Girl
moumoon

ADVANCED

Level: 5
BPM: 103
Notes: 307

1
口口口口 |----|
口口口口 |----|
口口口口 |----|
口口口口 |----|
2
口口口口 |----|
口口口口 |----|
口口口口 |----|
口口口口 |----|
3
口口口口 |----|
口口口口 |----|
口口口口 |----|
口口口口 |----|
4
④口④口 |①---|
口③口口 |②---|
口②口② |③---|
口口①口 |④---|
5
口④口④ |①---|
口口③口 |②---|
②口②口 |③---|
口①口口 |④---|
6
口⑥②⑤ |①②-③|
口③口① |④-⑤-|
口⑦④⑧ |⑥-⑦-|
口口口口 |⑧---|
7
④③③④ |①②-③|
⑤②口⑤ |④-⑤-|
口口①口
口口口口

⑧口口⑧
口口口口
口口口口 |⑥-⑦-|
口⑦⑥口 |⑧---|
8
⑥口⑥口 |①---|
口⑤口④ |②-③-|
③口②口 |④-⑤-|
①口口① |⑥---|
9
口口口口 |①②-③|
口④②口 |④-⑤-|
③口口①
口口⑤口

口⑧⑧口
口口⑦口
口⑥口口 |⑥-⑦-|
口口口口 |⑧---|
10
③口口② |①-②-|
口口口口 |③-④-|
④①口①
④口①口

⑧口⑦口
口⑦口⑦
口⑥⑦⑤ |⑤-⑥-|
口口口⑧ |⑦-⑧-|
11
口口口口 |--①-|
口口口④ |----|
口口口③ |--②-|
①口口② |③-④-|
12
①口①④ |①-②-|
口①口④ |③-④-|
②口口③
口口口口

⑤口口⑧
口口⑦口
口⑦口⑦ |⑤-⑥-|
⑧口⑦⑥ |⑦-⑧-|
13
①口口口 |--①-|
口口口口 |----|
口口口口 |----|
口口口口 |----|
14
③口口② |①-②-|
口口口口 |③-④-|
④①口①
④口①口

⑧口⑦口
口⑦口⑦
口⑥⑦⑤ |⑤-⑥-|
口口口⑧ |⑦-⑧-|
15
口口口口 |--①-|
口口口④ |----|
口口口③ |--②-|
①口口② |③-④-|
16
①口①④ |①-②-|
口①口④ |③-④-|
②口口③
口口口口

⑤口口⑧
口口⑦口
口⑦口⑦ |⑤-⑥-|
⑧口⑦⑥ |⑦-⑧-|
17
①口口口 |--①-|
②③④口 |----|
口口口口 |②-③-|
②③④口 |④---|
18
口②⑥① |--①-|
口口口⑤ |②-③-|
口③口④ |④⑤-⑥|
口口口口 |----|
19
口⑦⑦口 |①-②-|
口口口口 |③-④-|
④⑥⑤② |⑤-⑥-|
③口口① |⑦---|
20
口口口口 |--①-|
②口⑥③ |②-③-|
④口口① |④-⑤-|
口⑦⑤口 |⑥-⑦-|
21
⑥口口③ |①-②-|
⑦①口④ |③-④-|
⑤口口② |⑤-⑥-|
口口口口 |⑦---|
22
口③③口 |①-②-|
⑥口口⑥ |③-④-|
口④口② |⑤---|
口⑤口① |⑥---|
23
口口口口 |①---|
口⑥⑤口 |②-③-|
②口口① |④-⑤-|
④口口③ |⑥---|
24
口口口口 |①-②-|
口口③③ |③---|
②②口口
口口①①

口口口口
口口口⑤
口口口口 |--④-|
⑥口口④ |⑤-⑥-|
25
口⑤③口 |①-②-|
①⑦⑥口 |③-④-|
口④②口 |⑤-⑥-|
⑧口口⑧ |⑦-⑧-|
26
②口②口 |①---|
口②口口 |②---|
口①口① |----|
口口①口 |----|
27
口⑥②⑤ |①②-③|
口③口① |④-⑤-|
口⑦④⑧ |⑥-⑦-|
口口口口 |⑧---|
28
④③③④ |①②-③|
⑤②口⑤ |④-⑤-|
口口①口
口口口口

⑧口口⑧
口口口口
口口口口 |⑥-⑦-|
口⑦⑥口 |⑧---|
29
⑥口⑥口 |①---|
口⑤口④ |②-③-|
③口②口 |④-⑤-|
①口口① |⑥---|
30
口口口口 |①②-③|
口④②口 |④-⑤-|
③口口①
口口⑤口

口⑧⑧口
口口⑦口
口⑥口口 |⑥-⑦-|
口口口口 |⑧---|
31
③口口② |①-②-|
口口口口 |③-④-|
④①口①
④口①口

⑧口⑦口
口⑦口⑦
口⑥⑦⑤ |⑤-⑥-|
口口口⑧ |⑦-⑧-|
32
口口口口 |--①-|
口口口④ |----|
口口口③ |--②-|
①口口② |③-④-|
33
①口①④ |①-②-|
口①口④ |③-④-|
②口口③
口口口口

⑤口口⑧
口口⑦口
口⑦口⑦ |⑤-⑥-|
⑧口⑦⑥ |⑦-⑧-|
34
①④③② |--①-|
口口口口 |----|
口口口口 |②-③-|
口口口口 |④---|
35
③口口② |①-②-|
口口口口 |③-④-|
④①口①
④口①口

⑧口⑦口
口⑦口⑦
口⑥⑦⑤ |⑤-⑥-|
口口口⑧ |⑦-⑧-|
36
口口口口 |--①-|
口口口④ |----|
口口口③ |--②-|
①口口② |③-④-|
37
①口①④ |①-②-|
口①口④ |③-④-|
②口口③
口口口口

⑤口口⑧
口口⑦口
口⑦口⑦ |⑤-⑥-|
⑧口⑦⑥ |⑦-⑧-|
38
①口口口 |--①-|
口口口口 |----|
口④口② |②-③-|
⑤口③口 |④-⑤-|
39
口口口口 |①---|
①口口① |----|
口口口口 |----|
口口口口 |----|


不确定度: 0

最終更新:2012年11月14日 15:58