新たな幕開け
新井大樹

ADVANCED

Level: 8
BPM: 150
Notes: 642

1
口口口口 |----|
口口口口 |----|
口口口口 |----|
口口口口 |----|
2
口口口② |①②--|
口①口口 |--③-|
口口③口
口口口口

口口⑦口
口⑥口口
⑤口口口 |--④-|
口口④口 |⑤⑥⑦-|
3
⑤口口口 |①②③④|
口口④③ |--⑤-|
口①②口
口口口口

口口⑥口
口⑦口口
口⑧口口 |--⑥-|
口⑨口口 |⑦⑧⑨-|
4
口③口口 |①②③④|
④口②⑤ |--⑤-|
口口口①
口口口口

口口口⑨
口口⑧口
口⑦口口 |--⑥-|
口口⑥口 |⑦⑧⑨-|
5
①口口口 |①②--|
②口⑥⑥ |--③④|
⑤⑤口③ |⑤---|
口口口④ |⑥---|
6
口②⑦口 |①②--|
①⑥口口 |--③-|
⑤口③口 |--④-|
口口④口 |⑤⑥⑦-|
7
⑤口口口 |①②③④|
口口④③ |--⑤-|
口①②口
口口口口

口口⑥口
口⑦口口
口⑧口口 |--⑥-|
口⑨口口 |⑦⑧⑨-|
8
口③口口 |①②③④|
④口②⑤ |--⑤-|
口口口①
口口口口

口口口⑨
口口⑧口
口⑦口口 |--⑥-|
口口⑥口 |⑦⑧⑨-|
9
①口口口 |①②--|
②口⑥⑥ |--③④|
⑤⑤口③ |⑤---|
口口口④ |⑥---|
10
口②口口 |①②--|
①口口口 |----|
口口口口
口口口口

口口口⑥
③④⑤口
口口口口 |----|
口口口口 |③④⑤⑥|
11
④口③口 |--①-|
口口⑥② |--②③|
①口口⑤ |----|
口口口口 |④-⑤⑥|
12
口①口口 |①②--|
②口口口 |③④⑤⑥|
⑤④③口
⑥口口口

口口⑨⑩
⑧口口口
口口口口 |--⑦-|
口口⑦口 |⑧-⑨⑩|
13
⑤⑥口⑧ |-①②③|
口①②③ |④---|
⑦口口④ |⑤⑥--|
口口口口 |⑦-⑧-|
14
口口口口 |①②--|
①②口口 |③④⑤-|
口④③口
⑤口口口

口口口⑪
⑧⑨⑩口
口口口⑦ |⑥⑦--|
口口口⑥ |⑧⑨⑩⑪|
15
④⑥③口 |--①-|
口口⑤② |--②③|
①口口口 |----|
口口口口 |④-⑤⑥|
16
口口口口 |①②③-|
①口口口 |④⑤-⑥|
②⑥口口
③口⑤④

⑦⑧口口
口口口口
⑨口⑩口 |-⑦⑧-|
口口口⑪ |⑨-⑩⑪|
17
口口口口 |-①②③|
口①②③ |④---|
口口口④
口口口口

口⑥口口
⑤口⑧口
口口口口 |⑤⑥--|
⑦口口口 |⑦-⑧-|
18
⑤⑥⑦口 |①②③④|
口④⑧② |⑤---|
口⑨③① |⑥⑦⑧⑨|
⑩口口口 |⑩---|
19
口口④口 |①---|
②③口口 |----|
①口口① |--②-|
口①①口 |③-④-|
20
口⑤口① |①---|
口口口③ |②-③-|
口②口口 |--④-|
口④口口 |--⑤-|
21
口口⑥口 |--①-|
④⑤口口 |②-③-|
口③口① |--④-|
口口②口 |⑤-⑥-|
22
口口口① |①---|
⑤口口③ |②-③-|
口②口口 |--④-|
口④口口 |--⑤-|
23
口口①口 |--①-|
口口②口 |②-③-|
口口③口
口口口口

口口⑥口
④⑤口口
口口口口 |--④-|
口口口口 |⑤-⑥-|
24
口⑤口① |①---|
口口口③ |②-③-|
口②口口 |--④-|
口④口口 |--⑤-|
25
口口⑥口 |--①-|
④⑤口口 |②-③-|
口③口① |--④-|
口口②口 |⑤-⑥-|
26
④口口① |①-②-|
口口口② |③-④-|
口口③口
口口口口

口口口⑥
口口口口
⑤口口口 |--⑤-|
口口口口 |--⑥-|
27
口②①口 |----|
②口口① |----|
①口口② |①---|
口①②口 |②---|
28
口口口① |①②③④|
口口②⑥ |⑤-⑥⑦|
口③⑦口
④⑤口口

⑧口⑨⑪
口⑩口口
口口口口 |⑧-⑨-|
口口口口 |⑩-⑪-|
29
口⑤④口 |--①-|
⑤口③④ |②-③-|
④①②⑤ |④---|
口④⑤口 |⑤---|
30
口口口① |①②③④|
口口②⑥ |⑤-⑥⑦|
口③⑦口
④⑤口口

⑧口⑨⑪
口⑩口口
口口口口 |⑧-⑨-|
口口口口 |⑩-⑪-|
31
口③③口 |--①-|
②口口② |②-③-|
口①①口 |----|
口④④口 |④---|
32
②口②口 |①---|
口③口③ |②-③-|
①⑤①⑤ |--④-|
④口④口 |--⑤-|
33
①口①口 |--①-|
口②口② |②-③-|
③口③⑥ |--④-|
口④⑤口 |⑤-⑥-|
34
①口口② |①-②-|
①④④② |③-④-|
口③③口
口口口口

⑥⑥⑥⑥
口口口口
口口口口 |--⑤-|
口⑤⑤口 |--⑥-|
35
口口口口 |①-②-|
①⑤⑥② |③-④-|
③⑦⑧④ |⑤-⑥-|
口口口口 |⑦-⑧-|
36
口口口① |①---|
口口③口 |②-③-|
口口口②
口口口口

口口口⑤
口口口口
口口口口 |--④-|
口口④口 |--⑤-|
37
口⑤⑥口 |--①-|
④①口口 |②-③-|
口②口口 |--④-|
口③口口 |⑤-⑥-|
38
口口口① |①---|
口口③口 |②-③-|
⑤口口② |--④-|
口口④口 |--⑤-|
39
口⑤⑥② |--①-|
④口①③ |②-③-|
口口口口 |--④-|
口口口口 |⑤-⑥-|
40
口口口① |①---|
口口③口 |②-③-|
口口口②
口口口口

口口口⑤
口口口口
口口口口 |--④-|
口口④口 |--⑤-|
41
口⑤⑥口 |--①-|
④①口口 |②-③-|
口②口口 |--④-|
口③口口 |⑤-⑥-|
42
口口口⑥ |①-②-|
口④①口 |③-④-|
口③②口 |--⑤-|
⑤口口口 |--⑥-|
43
口①②口 |①-②-|
口③④口 |③-④-|
口⑤⑥口 |⑤-⑥-|
口⑦⑧口 |⑦-⑧-|
44
口④口口 |①---|
③口②⑤ |②-③-|
①口⑤② |--④-|
①口口口 |⑤---|
45
口口口口 |①---|
口口②⑤ |②---|
④口⑤② |③-④-|
①③口口 |⑤---|
46
口④口口 |①---|
口口②⑤ |②-③-|
③口⑤② |--④-|
①口口口 |⑤---|
47
口口口口 |①---|
口口②⑤ |②---|
④口⑤② |③-④-|
①③口口 |⑤---|
48
口④口口 |①---|
口口②⑤ |②-③-|
③口⑤② |--④-|
①口口口 |⑤---|
49
口口口口 |①---|
口口②⑤ |②---|
④口⑤② |③-④-|
①③口口 |⑤---|
50
口口口口 |①---|
口口②⑤ |②-③-|
③口⑤② |--④-|
①④口口 |⑤---|
51
口①口④ |①②③④|
③口口⑧ |⑤⑥⑦⑧|
口⑤口②
口⑦口⑥

⑩⑩口口
口⑨口口
口口口口 |⑨---|
口口口口 |⑩---|
52
口口口① |①②③④|
口口②⑥ |⑤-⑥⑦|
口③⑦口
④⑤口口

⑧口⑨⑪
口⑩口口
口口口口 |⑧-⑨-|
口口口口 |⑩-⑪-|
53
口⑤④口 |--①-|
⑤口③④ |②-③-|
④①②⑤ |④---|
口④⑤口 |⑤---|
54
口口口① |①②③④|
口口②⑥ |⑤-⑥⑦|
口③⑦口
④⑤口口

⑧口⑨⑪
口⑩口口
口口口口 |⑧-⑨-|
口口口口 |⑩-⑪-|
55
口③③口 |--①-|
②口口② |②-③-|
口①①口 |----|
口④④口 |④---|
56
②口②口 |①---|
口③口③ |②-③-|
①⑤①⑤ |--④-|
④口④口 |--⑤-|
57
①口①口 |--①-|
口②口② |②-③-|
③口③⑥ |--④-|
口④⑤口 |⑤-⑥-|
58
①口口② |①-②-|
①④④② |③-④-|
口③③口
口口口口

⑥⑥⑥⑥
口口口口
口口口口 |--⑤-|
口⑤⑤口 |--⑥-|
59
口口口口 |①-②-|
①⑤⑥② |③-④-|
③⑦⑧④ |⑤-⑥-|
口口口口 |⑦-⑧-|
60
口③口口 |①---|
③⑤口口 |②-③-|
口④④② |----|
②⑤①① |④-⑤-|
61
口口②口 |----|
口口口② |①-②-|
①口口口 |----|
口③③① |③---|
62
口⑤口③ |①---|
⑤①口③ |②-③-|
①口口口 |----|
②④④② |④-⑤-|
63
口口口口 |----|
口口口口 |①---|
口②②① |----|
①口口口 |②---|
64
口③口口 |①---|
③⑤口口 |②-③-|
口④④② |----|
②⑤①① |④-⑤-|
65
口口②口 |----|
口口口② |①-②-|
①口口口 |----|
口③③① |③---|
66
口⑤口③ |①---|
⑤①口③ |②-③-|
①口口口 |----|
②④④② |④-⑤-|
67
①口口② |①-②-|
口③④口 |③-④-|
⑤口口⑥ |⑤-⑥-|
口⑦⑧口 |⑦-⑧-|
68
①⑮⑯② |①②③④|
⑤③⑭④ |⑤⑥⑦⑧|
⑦⑬⑥⑧ |⑨⑩⑪⑫|
⑪⑨⑫⑩ |⑬⑭⑮⑯|
69
①口口② |①②③④|
⑤③口④ |⑤⑥⑦⑧|
⑦口⑥⑧
口口口口

口口口口
口口⑭⑮
口⑬口口 |⑨⑩⑪⑫|
⑪⑨⑫⑩ |⑬⑭⑮-|
70
①⑥⑤④ |①②③④|
②口口口 |⑤⑥⑦⑧|
③口⑧⑦
口口口口

⑬口口口
口⑭口⑯
⑮⑨口口 |⑨⑩⑪⑫|
口⑫⑪⑩ |⑬⑭⑮⑯|
71
口②⑤口 |①-②-|
口口①口 |-③--|
口③口④ |④--⑤|
口口⑥口 |--⑥-|
72
①⑮⑯② |①②③④|
⑤③⑭④ |⑤⑥⑦⑧|
⑦⑬⑥⑧ |⑨⑩⑪⑫|
⑪⑨⑫⑩ |⑬⑭⑮⑯|
73
①口口② |①②③④|
⑤③口④ |⑤⑥⑦⑧|
⑦口⑥⑧
口口口口

口口口口
口口⑭⑮
口⑬口口 |⑨⑩⑪⑫|
⑪⑨⑫⑩ |⑬⑭⑮-|
74
①⑥⑤④ |①②③④|
②口口口 |⑤⑥⑦⑧|
③口⑧⑦
口口口口

⑬口口口
口⑭口⑯
⑮⑨口口 |⑨⑩⑪⑫|
口⑫⑪⑩ |⑬⑭⑮⑯|
75
口②口⑤ |①-②-|
口口①口 |-③--|
口③口④ |④--⑤|
⑥口口口 |--⑥-|
76
口①①口 |①---|
口①①口 |----|
口口口口 |----|
口口口口 |----|

不确定度: 0

最終更新:2012年11月06日 22:23