Sunshine Girl
moumoon

EXTREME

Level: 8
BPM: 103
Notes: 516

1
口口口口 |----|
口口口口 |----|
口口口口 |----|
口口口口 |----|
2
口口口口 |----|
口口口口 |----|
口口口口 |----|
口口口口 |----|
3
口口口口 |----|
口口口口 |----|
口口口口 |----|
口口口口 |----|
4
④口④口 |①---|
口③口口 |②---|
口②口② |③---|
口口①口 |④---|
5
口④口④ |①---|
口口③口 |②---|
②口②口 |③---|
口①口口 |④---|
6
口口③⑤ |①②-③|
⑥①口② |④-⑤⑥|
口口④⑥
⑤口口口

⑨⑧口口
口⑪⑦⑩
⑩⑦⑪口 |⑦⑧⑨⑩|
口口⑧⑨ |⑪---|
7
口③③① |①②-③|
②⑤⑤口 |④-⑤-|
口④④②
①口口口

⑨口口⑨
⑦口口⑦
口口口口 |⑥⑦⑧-|
⑥⑧⑧⑥ |⑨---|
8
口口⑤④ |①②③-|
口口④⑤ |④-⑤-|
口②②口
①③③①

⑥口口口
⑥⑧口口
⑦口⑨口 |⑥⑦⑧⑨|
⑦口⑩口 |⑩---|
9
③口①⑤ |①②-③|
④口⑤① |④-⑤-|
②口口④
口②口③

口⑧⑦口
⑧口口口
⑦⑥口口 |⑥-⑦-|
⑥口口口 |⑧---|
10
②④口③ |①-②-|
④①口① |③-④-|
口①①①
③①口①

⑥口⑦⑧
口⑦口⑥
⑥口⑦⑤ |⑤-⑥-|
⑧⑦⑤⑥ |⑦-⑧-|
11
①①口口 |--①-|
①口口口 |----|
口口口①
口口①①

口②口口
口口口④
口②口③ |--②-|
口④③口 |③-④-|
12
①口①③ |①-②-|
①①①口 |③-④-|
①口①④
③口④②

⑧⑤⑦口
⑤⑦⑥⑥
⑥⑥⑦口 |⑤-⑥-|
口⑦口⑧ |⑦-⑧-|
13
口口口① |--①-|
①口口① |----|
①口口① |----|
①口口口 |----|
14
③口④② |①-②-|
①口①④ |③-④-|
①①①口
①口①③

⑦⑥口⑥
⑧口⑧口
⑤⑧口⑧ |⑤-⑥-|
口⑤口⑦ |⑦-⑧-|
15
口口①① |--①-|
口口口① |----|
①口口口
①①口口

口③④口
③口②口
④口口口 |--②-|
口口②口 |③-④-|
16
②④口③ |①-②-|
④①口① |③-④-|
口①①①
③①口①

⑥口⑥⑧
口⑦口⑦
⑦口⑦⑤ |⑤-⑥-|
⑧⑥⑤⑥ |⑦-⑧-|
17
①①①口 |--①-|
口口口口 |----|
口口口口
口①①①

口口口口
②③④口
②③④口 |②-③-|
②③④口 |④---|
18
⑥口⑤④ |--①-|
口口口③ |②-③-|
口口口② |④⑤-⑥|
口口口① |----|
19
口口⑦口 |①-②③|
⑧⑧⑧口 |④-⑤-|
③②⑤⑥ |⑥-⑦-|
①④口口 |⑧---|
20
④口口⑤ |--①②|
⑧口⑩③ |③-④-|
口⑦②⑨ |⑤-⑥⑦|
⑥口口① |⑧-⑨⑩|
21
④口口① |①-②③|
⑤③⑦口 |④-⑤-|
②⑥口⑧ |⑥-⑦-|
口口口口 |⑧---|
22
④①①④ |①-②③|
④口口④ |④-⑤⑥|
口口②⑤
⑥③口口

口口口口
口口口口
口⑦⑧口 |⑦--⑧|
口口口⑨ |⑨---|
23
⑥③⑤⑥ |①---|
①⑤③① |②-③-|
口④②口 |④-⑤-|
口②④口 |⑥---|
24
口口口口 |①-②-|
口③③③ |③---|
②②②口
口①①①

⑤口口④
口口口口
⑤口⑦④ |--④-|
口⑥口口 |⑤-⑥⑦|
25
口口口口 |①-②-|
口①口② |③-④-|
口口口口
③口口④

口口⑦口
口⑥口口
⑧⑤⑧口 |⑤-⑥-|
口⑧口口 |⑦-⑧-|
26
③①③① |①-②-|
口③①口 |③---|
口②口② |----|
口口②口 |----|
27
②口口① |①②-③|
⑥④③⑤ |④-⑤⑥|
⑤③④⑥
①口口②

口⑦⑧⑨
口⑪⑩口
口⑩⑪口 |⑦⑧⑨⑩|
⑨⑧⑦口 |⑪---|
28
②⑥口口 |①②-③|
①口⑤口 |④⑤⑥⑦|
口④⑦①
口口③②

口口⑩⑪
口⑧口⑨
口⑪口口 |⑧⑨⑩-|
口口口口 |⑪---|
29
⑤⑨⑥⑩ |①②-③|
口口⑪④ |④-⑤⑥|
②口③口 |⑦⑧⑨⑩|
⑦①⑧口 |⑪---|
30
口③⑤③ |①②-③|
④⑥④口 |④-⑤⑥|
②口②口
口①口①

口口口口
⑩口⑩口
⑨口口⑦ |⑦⑧⑨-|
⑧口口口 |⑩---|
31
②④口③ |①-②-|
④①口① |③-④-|
口①①①
③①口①

⑥口⑦⑧
口⑦口⑥
⑥口⑦⑤ |⑤-⑥-|
⑧⑦⑤⑥ |⑦-⑧-|
32
①①口口 |--①-|
①口口口 |----|
口口口①
口口①①

口②口口
口口口④
口②口③ |--②-|
口④③口 |③-④-|
33
①口①③ |①-②-|
①①①口 |③-④-|
①口①④
③口④②

⑧⑤⑦口
⑤⑦⑥⑥
⑥⑥⑦口 |⑤-⑥-|
口⑦口⑧ |⑦-⑧-|
34
②③④① |--①-|
①口口① |----|
①口口① |②-③-|
①口口口 |④---|
35
③口④② |①-②-|
①口①④ |③-④-|
①①①口
①口①③

⑦⑥口⑥
⑧口⑧口
⑤⑧口⑧ |⑤-⑥-|
口⑤口⑦ |⑦-⑧-|
36
口口①① |--①-|
口口口① |----|
①口口口
①①口口

口③④口
③口②口
④口口口 |--②-|
口口②口 |③-④-|
37
②④口③ |①-②-|
④①口① |③-④-|
口①①①
③①口①

⑥口⑥⑧
口⑦口⑦
⑦口⑦⑤ |⑤-⑥-|
⑧⑥⑤⑥ |⑦-⑧-|
38
①①①口 |--①-|
口口口口 |----|
口口口口
口①①①

口口口口
口口口口
口④口② |②-③-|
⑤口③口 |④-⑤-|
39
口①①口 |①---|
①口口① |----|
口口口口 |----|
口口口口 |----|


不确定度: 0

最終更新:2012年11月14日 15:57