SOS
たむらぱん

BASIC

Level: 3
BPM: 160
Notes: 189

1
口口口口 |----|
口口口口 |----|
口口口口 |----|
口口口口 |----|
2
口口口口 |①---|
口①口口 |----|
口口口口 |----|
口口口口 |----|
3
口口口口 |①---|
口口①口 |----|
口口口口 |----|
口口口口 |----|
4
口①①口 |①---|
口③③口 |--②-|
口②②口 |----|
口口口口 |③---|
5
口①①口 |----|
口②②口 |①---|
口口口口 |②---|
口口口口 |----|
6
口口口口 |①---|
口口②口 |----|
口口①口 |②---|
口口口口 |----|
7
口口口口 |①---|
口①口口 |----|
口②口口 |②---|
口口口口 |----|
8
口口口口 |①---|
口口口口 |----|
口口口口 |②---|
口①②口 |----|
9
口口口口 |①---|
口③②口 |②---|
口④①口 |③---|
口口口口 |④---|
10
口口口口 |①---|
口口口口 |----|
口②②口 |②---|
口①①口 |----|
11
口口口口 |①---|
口①①口 |----|
口②②口 |②---|
口口口口 |----|
12
口口口口 |①---|
口①①口 |----|
口②②口 |②---|
口口口口 |----|
13
口①①口 |①---|
口口口口 |----|
口②②口 |②---|
口口口口 |----|
14
口口①口 |①---|
口②口口 |----|
口口口口 |②---|
口口口口 |----|
15
口口口口 |①---|
口口口口 |----|
口口①口 |②---|
口②口口 |----|
16
口口口口 |①---|
口口口口 |----|
口口口口 |②---|
口口①② |----|
17
口口口口 |①---|
口④③② |②---|
口口口① |③---|
口口口口 |④---|
18
口口口口 |①---|
口②②口 |----|
口①①口 |②---|
口口口口 |----|
19
口①①口 |①---|
口口口口 |----|
口②②口 |②---|
口口口口 |----|
20
口口口口 |①---|
口②②口 |----|
口口口口 |②---|
口①①口 |----|
21
口口口口 |①---|
口④④口 |②---|
口③口口 |③---|
口②①口 |④---|
22
口口口口 |①---|
口口口口 |----|
③②①口 |②---|
口口口口 |③---|
23
口口口口 |①---|
口口口口 |②---|
口口口口 |--③-|
①②③口 |----|
24
口口口口 |①---|
口口④③ |②---|
口口口② |③---|
口口口① |④---|
25
口口口口 |①---|
口①口口 |--②-|
口②②口 |----|
口口口③ |③---|
26
口口口③ |①---|
口口口② |②---|
口口口① |③---|
口口口口 |----|
27
口①口口 |①---|
口②口口 |②---|
口③口口 |--③-|
口口口口 |----|
28
口口口口 |①---|
口③②口 |--②-|
口口①口 |----|
口口口口 |③---|
29
口口口口 |----|
口口口口 |①---|
口①口口 |②---|
口②②口 |----|
30
口口口口 |①---|
口口口口 |②---|
③④口口 |③---|
①②口口 |④---|
31
③④口口 |①---|
①②口口 |②---|
口口口口 |③---|
口口口口 |④---|
32
口口口口 |①---|
口①②口 |②---|
口口口口 |----|
口口口口 |----|
33
口口口口 |----|
口①口口 |①---|
口②口口 |②---|
口③口口 |③---|
34
口口口口 |①---|
口口口口 |②---|
口口④③ |③---|
口口②① |④---|
35
口口④③ |①---|
口口②① |②---|
口口口口 |③---|
口口口口 |④---|
36
口口口口 |①---|
口②①口 |②---|
口口口口 |----|
口口口口 |----|
37
口口口口 |----|
口口口口 |----|
口口口口 |----|
口口口口 |----|
38
口口口口 |①---|
口①②口 |----|
口口口口 |②---|
口口口口 |----|
39
口口口口 |①---|
口口口口 |----|
口口①② |②---|
口口口口 |----|
40
口口口口 |①---|
口口②① |----|
口口口口 |②---|
口口口口 |----|
41
口口口口 |①---|
口①口口 |②---|
口②口口 |③---|
口③④口 |④---|
42
口口口口 |①---|
口口口① |②---|
口口口② |③---|
口口④③ |④---|
43
口口口口 |①---|
口口口口 |②---|
③④口口 |③---|
②①口口 |④---|
44
口口口口 |①---|
口①②口 |②---|
口口口口 |----|
口口口口 |----|
45
口口口口 |----|
口口①口 |①---|
口口②口 |②---|
口口③口 |③---|
46
口口口口 |①---|
①口口口 |②---|
②口口口 |③---|
③④口口 |④---|
47
口口口口 |①---|
口口口口 |②---|
口口④③ |③---|
口口①② |④---|
48
口口口口 |①---|
口②①口 |②---|
口口口口 |----|
口口口口 |----|
49
口口口口 |----|
口口口口 |----|
口口口口 |----|
口口口口 |----|
50
口口口口 |①---|
①②口口 |----|
口口口口 |②---|
口口口口 |----|
51
口口口口 |①---|
口口①口 |----|
口口②口 |②---|
口口口口 |----|
52
口口口口 |①---|
口口口口 |----|
口口口口 |②---|
口②①口 |----|
53
口口口口 |①---|
③④口口 |②---|
②口口口 |③---|
①口口口 |④---|
54
口口口口 |①---|
口口①口 |②---|
口口②口 |③---|
口口③④ |④---|
55
口口口口 |①---|
口口口② |--②-|
口口口① |----|
口口口口 |----|
56
口①①口 |①---|
口③③口 |--②-|
口②②口 |----|
口口口口 |③---|
57
口①②口 |----|
口③口口 |①---|
口口口口 |②---|
口口口口 |③---|
58
口口口口 |①---|
口口口口 |----|
口①①口 |②---|
口②口口 |----|
59
口口口口 |①---|
口口口口 |----|
口②①口 |②---|
口口口口 |----|
60
口口口口 |①---|
口③③口 |--②-|
口②②口 |----|
口①①口 |③---|
61
②①①② |----|
口口口口 |①---|
口口口口 |②---|
口口口口 |----|
62
口口口口 |①---|
口①①口 |----|
口口口口 |----|
口口口口 |----|


不确定度: 0

最終更新:2012年11月14日 15:57