SOS
たむらぱん

ADVANCED

Level: 7
BPM: 160
Notes: 466

1
口口口口 |----|
口口口口 |----|
口口口口 |----|
口口口口 |----|
2
①②③口 |①---|
①②口口 |②---|
①口口口 |③---|
④口口口 |④---|
3
⑤口⑦④ |①-②-|
口⑥口① |③-④-|
口口②① |--⑤-|
口③②① |⑥-⑦-|
4
口口口口 |①-②-|
⑤⑥⑤⑥ |--③-|
④③④③ |④---|
①②①② |⑤-⑥-|
5
②①②① |--①-|
口⑥⑤口 |②---|
口口④口 |③---|
③口口③ |④⑤⑥-|
6
①④④① |①---|
口口口口 |--②-|
口口口口 |③---|
③②②③ |--④-|
7
①口口① |①---|
口口口口 |--②-|
②③③② |③---|
口口口口 |----|
8
口口口口 |①---|
④①①④ |--②-|
③口口③ |③---|
②口口② |--④-|
9
①②②① |①-②-|
⑧③③⑧ |③-④-|
⑦④④⑦ |⑤-⑥-|
⑥⑤⑤⑥ |⑦-⑧-|
10
①口口① |①---|
口②②口 |②---|
③口口③ |③---|
口④④口 |④---|
11
口口口口 |①---|
①口口① |②---|
③②②③ |③---|
口④④口 |④---|
12
①口口① |①---|
口②②口 |②---|
③口口③ |③---|
口④④口 |④---|
13
口口口口 |①---|
①口口① |②---|
③②②③ |③---|
口④④口 |④---|
14
口口口口 |①---|
①口②① |--②-|
口口口口
②口口口

口口口④
④③口口
口口口口 |③---|
口③口口 |--④-|
15
②③①口 |①---|
口口口口 |--②-|
①口口② |③---|
口口口③ |----|
16
④口口口 |①---|
②①①② |--②-|
③①①③ |③---|
口口口口 |--④-|
17
口①②③ |①-②-|
口⑧口④ |③-④-|
口口⑦⑤ |⑤-⑥-|
口口口⑥ |⑦-⑧-|
18
口①①口 |①---|
②口口② |②---|
口③③口 |③---|
④口口④ |④---|
19
口③③口 |①---|
④①①④ |②---|
②口口② |③---|
口口口口 |④---|
20
口③③口 |①---|
④口口④ |②---|
口①①口 |③---|
②口口② |④---|
21
②⑤口口 |①---|
⑤③⑤口 |②-③-|
口口④口 |④---|
口口口① |⑤---|
22
口口④⑤ |①---|
口口⑥③ |②-③-|
口口②口 |④---|
①口①口 |⑤-⑥-|
23
②①口口 |①-②-|
③⑦口口 |③-④-|
④口⑥口 |--⑤-|
口口口⑤ |⑥-⑦-|
24
④口①③ |①---|
②口口口 |②---|
口口口② |③---|
①③口④ |④---|
25
口口③④ |①-②-|
口②③口 |③-④-|
①②口④
①口口口

口口口口
口口口口
⑥口口口 |----|
⑤口口口 |⑤-⑥-|
26
①口口口 |①---|
口⑥口② |②-③-|
⑤口③② |④-⑤-|
⑤④③口 |--⑥-|
27
①⑤③口 |①-②-|
口口⑥② |③-④-|
口口④⑦ |--⑤-|
口④口口 |⑥-⑦-|
28
口口②口 |①-②-|
①口口② |--③-|
口①③口
口口口③

④口口⑥
口④⑥口
口⑤口口 |④---|
⑤口口口 |⑤-⑥-|
29
③①③口 |--①-|
①口口口 |②---|
③口口② |③---|
口口②口 |----|
30
⑥⑦口口 |①-②-|
口口口口 |③-④-|
⑤口口口 |⑤---|
④③②① |⑥-⑦-|
31
口口①② |①-②-|
口口口③ |③-④-|
口口口④
口口口口

口口⑧口
口口口口
⑧口口口 |⑤-⑥-|
口⑦⑥⑤ |⑦-⑧-|
32
①口口口 |--①-|
口①口口 |----|
口口①口 |----|
口口口口 |----|
33
口③口口 |----|
③口②口 |①---|
口②口① |②---|
口口①口 |③---|
34
口口口口 |①---|
口②口① |②---|
口口口口 |③-④-|
口③④⑤ |⑤---|
35
⑤④③② |①-②-|
⑥⑧口① |③-④-|
⑦口口口 |⑤-⑥-|
口口口⑧ |⑦-⑧-|
36
口口口口 |--①-|
口口口① |----|
口口①口 |----|
口①口口 |----|
37
口口口口 |----|
口口口口 |----|
口口口口 |----|
口口口口 |----|
38
②口口① |①---|
口口①口 |--②-|
②①口口
①口口口

口④口④
口口口③
口口口口 |③---|
口口口③ |--④-|
39
②口②口 |①---|
口口口口 |--②-|
口口口口 |③---|
①③①③ |----|
40
口③口③ |①---|
①口口① |--②-|
口口口④ |③---|
②口②口 |--④-|
41
口②②口 |①---|
口口①① |②---|
口口口口
口口口口

③口口口
口口口⑤
口口口⑤ |③-④-|
④④口⑤ |⑤---|
42
口⑤⑥⑦ |①-②-|
口④①⑧ |③-④-|
口③②口 |⑤-⑥-|
口口口口 |⑦-⑧-|
43
口口口⑧ |①-②-|
⑦口⑧口 |③-④-|
⑥口口① |⑤-⑥-|
⑤④③② |⑦-⑧-|
44
口①口口 |--①-|
口口口口 |----|
口①口① |----|
口口口口 |----|
45
口口③口 |----|
口②口③ |①---|
①口②口 |②---|
口①口口 |③---|
46
口口口口 |①---|
口②②口 |②---|
⑥①③口 |③-④-|
⑤④③口 |⑤-⑥-|
47
②③④⑤ |①-②-|
①口口⑥ |③-④-|
口⑧口⑦ |⑤-⑥-|
⑧口口口 |⑦-⑧-|
48
口口口口 |--①-|
①口①口 |----|
口口口口 |----|
口口①口 |----|
49
口口口口 |----|
口口口口 |----|
口口口口 |----|
口口口口 |----|
50
口③①口 |①---|
②口口④ |--②-|
口③①口 |③---|
②口口④ |--④-|
51
③口①口 |①---|
口②口口 |--②-|
③口①口 |③---|
口②口口 |----|
52
口口口④ |①---|
口③②口 |--②-|
口②③① |③---|
口口①口 |--④-|
53
②口口口 |①-②-|
口口口口 |③-④-|
①口口④
①口③③

口口⑥口
⑤⑤口口
口口口口 |⑤-⑥-|
⑦⑦口口 |⑦---|
54
口口口口 |①---|
口⑥口③ |②---|
口⑤口② |③-④-|
口④口① |⑤-⑥-|
55
口①口口 |①-②-|
④口⑦口 |③-④-|
③口口⑥ |--⑤-|
②口⑤口 |⑥-⑦-|
56
③⑤①口 |①-②-|
口④⑥② |--③-|
②⑥③口 |④---|
口①⑤④ |⑤-⑥-|
57
口口②口 |--①-|
④③④① |②---|
①④③④ |③---|
口②口口 |④---|
58
①①口⑥ |①---|
口④口口 |--②③|
③口口⑤ |④--⑤|
口②①① |--⑥-|
59
口⑤口口 |①---|
口④口口 |--②③|
口⑥③口 |④--⑤|
口②①① |--⑥-|
60
③口口③ |①-②-|
口口口口 |--③-|
②口口②
①口口①

口口口口
④口口④
⑥口口⑥ |④---|
口⑤⑤口 |⑤-⑥-|
61
①②②① |--①-|
口口口⑦ |②---|
口口口⑥ |③---|
③③④⑤ |④⑤⑥⑦|
62
①口口① |①---|
口口口口 |----|
口口口口 |----|
口口口口 |----|


不确定度: 0

最終更新:2012年11月14日 15:57