SOS
たむらぱん

EXTREME

Level: 9
BPM: 160
Notes: 675

1
口口口口 |----|
口口口口 |----|
口口口口 |----|
口口口口 |----|
2
①②③④ |①---|
口口口③ |②---|
口口口② |③---|
口口口① |④---|
3
口口口口 |①-②-|
①⑦④⑤ |③-④-|
②口⑥口 |--⑤-|
③②①口 |⑥-⑦-|
4
口口④③ |①-②-|
口口③④ |--③-|
①②⑤⑥ |④---|
②①⑥⑤ |⑤-⑥-|
5
①②口③ |--①-|
②①③口 |②---|
口③⑤⑥ |③---|
③口④口 |④⑤⑥-|
6
口口③口 |①---|
①口②① |②-③-|
口②口口
口③口口

④口口口
⑥⑤口口
口口⑤⑥ |④---|
口口口④ |⑤-⑥-|
7
④口口① |①---|
口口②③ |②-③-|
③②口口 |④---|
①口口④ |----|
8
口口②① |①---|
口口口口 |--②-|
口口口口
①②口口

③口口口
口④④口
口④④口 |③---|
⑤口口③ |④-⑤-|
9
④口口③ |①-②-|
②口口⑤ |③-④-|
⑥口口① |⑤-⑥-|
⑧口口⑦ |⑦-⑧-|
10
口②③③ |①---|
①口①③ |②---|
④②口② |③---|
④④①口 |④---|
11
口②③③ |①---|
①口①③ |②---|
④②口② |③---|
④④①口 |④---|
12
②②③④ |①---|
口②③③ |②---|
④④①口 |③---|
③④①① |④---|
13
②①④④ |①---|
①①口④ |②---|
③口②② |③---|
③③②① |④---|
14
口口口口 |①---|
③①①③ |--②-|
④①①④ |③---|
②口口② |--④-|
15
①口口① |①---|
③口口③ |--②-|
口口口口 |③---|
②口口② |----|
16
②口口② |①---|
口①①口 |--②-|
③口口③ |③---|
口①①④ |--④-|
17
⑥⑦⑧⑥ |①-②-|
⑤④口⑦ |③-④-|
口③②⑧ |⑤-⑥-|
口口①口 |⑦-⑧-|
18
③④口④ |①---|
口③④口 |②---|
③①②口 |③---|
①②①② |④---|
19
口口①口 |①---|
②口口① |②---|
口②①口
②口口口

④口④口
口④③口
口口口③ |③---|
口口③口 |④---|
20
口②口② |①---|
③④②④ |②---|
①口①口 |③---|
③①③④ |④---|
21
①②①口 |①---|
②口③口 |②-③-|
①③①口
口口口口

口口⑤口
口⑤口⑤
⑤口⑤④ |④---|
口⑤④口 |⑤---|
22
①口口① |①---|
②口②口 |②-③-|
口③口③
口口口口

⑤口口口
口⑥口口
⑤口口口 |④---|
④⑥④口 |⑤-⑥-|
23
口口①④ |①-②-|
③口口② |③-④-|
口口①④
③口口②

⑤口⑦口
口⑥口口
⑤口⑦口 |--⑤-|
口⑥口口 |⑥-⑦-|
24
口②④② |①---|
①③①口 |②---|
④口④② |③---|
①③口③ |④---|
25
口口口③ |①-②-|
口口②口 |③-④-|
口①口口
④④④④

口口口口
⑥⑥口口
⑤⑥口口 |----|
口口口口 |⑤-⑥-|
26
①①①② |①---|
口口①口 |②-③-|
口口①③
口口口③

⑥⑥口口
口口口口
⑤口口口 |④-⑤-|
⑤④④口 |--⑥-|
27
口口①① |①-②-|
口口口② |③-④-|
口口口②
④④③③

⑤⑥⑥⑦
⑤口口⑦
口口口口 |--⑤-|
口口口口 |⑥-⑦-|
28
口口口口 |①-②-|
口口口口 |--③-|
③口口①
③②②①

④④⑤⑤
口口口口
口口口口 |④---|
口口口⑥ |⑤-⑥-|
29
③③③口 |--①-|
③②②② |②---|
③②①① |③---|
口②①口 |----|
30
⑦⑥⑤④ |①-②-|
⑥①②③ |③-④-|
⑤②②③ |⑤-⑥-|
④③③⑧ |⑦-⑧-|
31
⑥⑤④③ |①-②-|
⑤⑦⑧② |③-④-|
④⑧⑧① |⑤-⑥-|
③②①口 |⑦-⑧-|
32
口口口口 |--①-|
口口口① |----|
口口口① |----|
口①①① |----|
33
口③③③ |----|
②②②③ |①---|
①①②③ |②---|
口①②口 |③---|
34
③口口口 |①---|
口口口口 |②-③-|
②②口口
①②口③

口④⑤⑥
口口口⑤
口口口④ |④-⑤-|
⑦口口口 |⑥-⑦-|
35
③④⑤⑥ |①-②-|
②⑧⑦⑤ |③-④-|
①⑧⑧④ |⑤-⑥-|
口①②③ |⑦-⑧-|
36
口口口口 |--①-|
①口口口 |----|
①口口口 |----|
①①①口 |----|
37
口口口口 |----|
口口口口 |----|
口口口口 |----|
口口口口 |----|
38
口口口① |①---|
口②①口 |--②-|
口①口口
①口口口

③口③口
口口④口
③口口口 |③---|
口口口口 |--④-|
39
口①口① |①---|
口口口③ |--②-|
口口②① |③---|
口③口③ |----|
40
口①口口 |①---|
①②①口 |--②-|
口①口①
口口①口

③口③口
口口口口
③④口口 |③---|
口口口口 |--④-|
41
②③④⑤ |①---|
①口口④ |②---|
口口口③ |③-④-|
①口①② |⑤---|
42
④口口口 |①-②-|
③口口口 |③-④-|
②口口口
①②③④

口⑤⑥⑦
口口口⑥
口口口⑤ |⑤-⑥-|
⑧口口口 |⑦-⑧-|
43
③④⑤⑥ |①-②-|
②⑧⑦⑤ |③-④-|
①⑧⑧④ |⑤-⑥-|
口①②③ |⑦-⑧-|
44
口口口口 |--①-|
①口口口 |----|
①口口口 |----|
①①①口 |----|
45
口②①口 |----|
③②①① |①---|
③②②② |②---|
③③③口 |③---|
46
④③②① |①-②-|
口口口② |③-④-|
口口口③
口口口④

口口口⑧
⑤口口口
⑥口口口 |⑤-⑥-|
⑦⑥⑤口 |⑦-⑧-|
47
③②①口 |①-②-|
④⑧⑧① |③-④-|
⑤⑦⑧② |⑤-⑥-|
⑥⑤④③ |⑦-⑧-|
48
口①①① |--①-|
口口口① |----|
口口口① |----|
口口口口 |----|
49
口口口口 |----|
口口口口 |----|
口口口口 |----|
口口口口 |----|
50
口口口口 |①---|
口①①口 |--②-|
口①①②
口口②②

③③口口
③口④口
④口口口 |③---|
④④口口 |--④-|
51
③②①① |①---|
②②口① |--②-|
口①③③ |③---|
口口③② |----|
52
②口口① |①---|
口口①① |--②-|
①①口口
①口口②

口口③口
口口口口
口口口口 |③---|
④③口口 |--④-|
53
口口⑤⑥ |①-②-|
口③④⑥ |③-④-|
①②口⑥ |⑤-⑥-|
口⑦⑦⑦ |⑦---|
54
口口③口 |①---|
口②③④ |②---|
①②⑤④ |③-④-|
①⑥口口 |⑤-⑥-|
55
②②④③ |①-②-|
①⑦③④ |③-④-|
①口⑥口 |--⑤-|
口口口⑤ |⑥-⑦-|
56
口口②① |①-②-|
口口①② |--③-|
口③口③
③口③口

⑥⑤⑥⑤
⑤⑥⑤⑥
④口④口 |④---|
口④口④ |⑤-⑥-|
57
口③口口 |--①-|
③④③④ |②---|
口③②③ |③---|
①④③④ |④---|
58
①口①口 |①---|
口口③口 |--②③|
①②①口
口口口口

口口⑥⑥
口口口口
口口口④ |④--⑤|
⑤⑤口口 |--⑥-|
59
口①口⑥ |①---|
口④⑥① |--②③|
①⑤③口 |④--⑤|
⑤口①② |--⑥-|
60
③口①口 |①-②-|
①③口② |--③-|
②口③①
口①口③

口④口⑤
口口⑤⑥
⑥⑤口口 |④---|
⑤口④口 |⑤-⑥-|
61
⑦②②口 |--①-|
①⑥③口 |②---|
口③⑤① |③---|
口②②④ |④⑤⑥⑦|
62
口口①① |①---|
口口口① |----|
①口口口 |----|
①①口口 |----|


不确定度: 0

最終更新:2012年11月14日 15:57