R.P.G.~Rockin' Playing Game
SuG

BASIC

Level: 4
BPM: 205
Notes: 318

1
口口口口 |----|
口口口口 |----|
口口口口 |----|
口口口口 |----|
2
口口口口 |①---|
口口口口 |----|
口口口口 |----|
口①口口 |----|
3
口口口口 |①---|
口口口口 |----|
口口①口 |----|
口口口口 |----|
4
口口口口 |①---|
口①口口 |----|
口口口口 |②---|
口②②口 |----|
5
口口口口 |①---|
口①①口 |----|
口口口口 |----|
口口口口 |----|
6
口①口② |①---|
口口口口 |----|
口口口口 |②---|
口口口口 |----|
7
口口①口 |①---|
口③②口 |②---|
口④口口 |③---|
口口口口 |④---|
8
口口口口 |①---|
口口口口 |----|
口口口口 |②---|
①口②口 |----|
9
口口口口 |①---|
口口④口 |②---|
口②③口 |③---|
口①口口 |④---|
10
口①口② |①---|
口口口口 |----|
口口口口 |②---|
口口口口 |----|
11
口口①口 |①---|
口③②口 |②---|
口④口口 |③---|
口口口口 |④---|
12
口口口口 |①---|
口口口口 |----|
口口口口 |②---|
①口②口 |----|
13
口口口口 |①---|
口口④口 |②---|
口②③口 |③---|
口①口口 |④---|
14
口①①口 |①---|
口②口口 |----|
口③口口 |②---|
口口口口 |③---|
15
口口口口 |①---|
口口③口 |----|
口口②口 |②---|
口①①口 |③---|
16
口①①口 |①---|
口②口口 |----|
口③口口 |②---|
口口口口 |③---|
17
口口口口 |①---|
口口③口 |----|
口口②口 |②---|
口①①口 |③---|
18
口①①口 |①---|
口②口口 |----|
口③口口 |②---|
口口口口 |③---|
19
口口口口 |①---|
口口③口 |----|
口口②口 |②---|
口①①口 |③---|
20
口①①口 |①---|
②口口② |----|
口口口口 |②---|
口口口口 |----|
21
③口口③ |①---|
口口口口 |----|
②①①② |②---|
口口口口 |③---|
22
口①①口 |①---|
口口口口 |----|
口口口口 |----|
口口口口 |----|
23
口口口口 |----|
口口口口 |----|
口口口口 |----|
口口口口 |----|
24
口口口口 |----|
口口口口 |①---|
①②口口 |②---|
口口口口 |----|
25
口口口口 |①---|
口口③口 |②---|
口口②口 |③---|
口口①口 |----|
26
口①①口 |①---|
口②②口 |----|
口口口口 |②---|
口口口口 |----|
27
口口口口 |①---|
①③③② |----|
口口口口 |②---|
口口口口 |③---|
28
口口口口 |----|
口口口口 |①---|
①②口口 |②---|
口口口口 |----|
29
口口口④ |①---|
口口③口 |②---|
口口口② |③---|
口口①口 |④---|
30
口①①口 |①---|
②口口② |----|
口口口口 |②---|
口口口口 |----|
31
口口口口 |----|
口口口口 |----|
口①①口 |①---|
口①①口 |----|
32
口①①口 |①---|
口②口口 |----|
口③口口 |②---|
口口口口 |③---|
33
口口口口 |①---|
口口③口 |----|
口口②口 |②---|
口①①口 |③---|
34
口①①口 |①---|
口②口口 |----|
口③口口 |②---|
口口口口 |③---|
35
口口口口 |①---|
口口③口 |----|
口口②口 |②---|
口①①口 |③---|
36
口①①口 |①---|
口②口口 |----|
口③口口 |②---|
口口口口 |③---|
37
口口口口 |①---|
口口③口 |----|
口口②口 |②---|
口①①口 |③---|
38
口①①口 |①---|
②口口② |----|
口口口口 |②---|
口口口口 |----|
39
③口口③ |①---|
②口口② |----|
口①①口 |②---|
口口口口 |③---|
40
口①①口 |①---|
口口口口 |②---|
②③口口 |③---|
口口口口 |----|
41
口口口口 |①---|
口口③口 |②---|
口口②口 |③---|
口口①口 |----|
42
口口口口 |----|
口①①口 |----|
口口口口 |①---|
口口口口 |----|
43
口口口口 |①---|
①③③② |----|
口口口口 |②---|
口口口口 |③---|
44
口口口口 |----|
口口口口 |①---|
①②口口 |②---|
口口口口 |----|
45
口口口口 |①---|
口口③口 |②---|
口口口② |③---|
口口①口 |----|
46
口①①口 |①---|
②③③② |----|
口口口口 |②---|
口口口口 |③---|
47
口①②口 |①---|
口口口口 |----|
口口口口 |②---|
口口口口 |----|
48
口口口口 |①---|
口①②口 |----|
口口口口 |②---|
口口口口 |----|
49
口口口口 |①---|
口口口口 |----|
口①②口 |②---|
口口口口 |----|
50
口口口口 |①---|
口口口口 |----|
口③口口 |②---|
口①②口 |③---|
51
口②②口 |①---|
口口①口 |----|
口口口口 |②---|
口口口口 |----|
52
口口口口 |----|
口①①口 |----|
口口口口 |①---|
口口口口 |----|
53
口口口口 |----|
口口口口 |----|
口①①口 |①---|
口口口口 |----|
54
口口口口 |----|
口口口口 |----|
口口口口 |①---|
口①①口 |----|
55
口口口口 |①---|
口口口口 |----|
②口口口 |②---|
①口口口 |----|
56
口口口口 |①---|
口口②口 |----|
口①口口 |②---|
口口口口 |----|
57
口口口② |①---|
口口口① |----|
口口口口 |②---|
口口口口 |----|
58
口口口口 |----|
口口口口 |----|
口口口口 |----|
口口口口 |----|
59
口①①口 |----|
口口口口 |----|
口口口口 |①---|
口口口口 |----|
60
口口口口 |----|
口①①口 |----|
口口口口 |①---|
口口口口 |----|
61
口口口口 |----|
口口口口 |----|
口①①口 |①---|
口口口口 |----|
62
口口口口 |----|
口口口口 |----|
口口口口 |①---|
口①①口 |----|
63
口口口口 |①---|
口口口口 |----|
①口口② |②---|
口口口口 |----|
64
口口口口 |①---|
①口口② |----|
口口口口 |②---|
口口口口 |----|
65
①口口① |①---|
口口口口 |----|
口口口口 |----|
口口口口 |----|
66
口①①口 |----|
口口口口 |----|
口口口口 |----|
口口口口 |①---|
67
口口口口 |①---|
口①①口 |②---|
④②②④ |③---|
口③③口 |④---|
68
②口口② |①---|
①口口① |----|
口口口口 |②---|
口口口口 |----|
69
口口口口 |①---|
口口口④ |②---|
②口③口 |③---|
口①口口 |④---|
70
口①①口 |①---|
③②②③ |----|
口口口口 |②---|
口口口口 |③---|
71
①口口① |①---|
口口口口 |--②-|
②口口② |----|
③口口③ |③---|
72
口口口口 |----|
①口口口 |----|
口口口口 |----|
口口口口 |①---|
73
①口口③ |①---|
口口口② |②---|
口口口口 |③---|
口口口口 |----|
74
口①①口 |①---|
口②②口 |----|
口口口口 |②---|
口口口口 |----|
75
口口口口 |①---|
口口口口 |②---|
②口口④ |③---|
①口口③ |④---|
76
口口口口 |①---|
口③口口 |----|
口①①口 |②---|
口②②口 |③---|
77
①口口口 |①---|
口口口③ |②---|
口口②口 |③---|
口口口口 |----|
78
口口口口 |①---|
③②②③ |----|
口口口口 |②---|
口①①口 |③---|
79
①口口① |①---|
口口口口 |--②-|
②口口② |----|
③口口③ |③---|
80
口口口口 |----|
①口口口 |----|
口口口口 |----|
口口口口 |①---|
81
①口口③ |①---|
口口口② |②---|
口口口口 |③---|
口口口口 |----|
82
口①①口 |①---|
口②②口 |----|
口口口口 |②---|
口口口口 |----|
83
口口口口 |①---|
口口口口 |②---|
②口口④ |③---|
①口口③ |④---|
84
口口口口 |①---|
口口口口 |②---|
口②④口 |③---|
口①③口 |④---|
85
口口口口 |①---|
口①①口 |----|
口口口口 |----|
口口口口 |----|
86
①②②① |①---|
口口口口 |----|
口口口口 |②---|
口口口口 |----|
87
口口口口 |①---|
①口口① |----|
口口口口 |----|
口口口口 |----|
88
口口口口 |①---|
口①①口 |----|
口②②口 |②---|
口口口口 |----|
89
口口口口 |①---|
口口口口 |----|
口口口口 |----|
口①①口 |----|
90
口口口口 |①---|
①②②① |----|
口口口口 |②---|
口口口口 |----|
91
①①①① |①---|
口口口口 |----|
口口口口 |----|
口口口口 |----|
92
口口口口 |----|
口口口口 |----|
口口口口 |----|
口口口口 |----|
93
口口口口 |----|
口口口口 |----|
口口口口 |----|
口口口口 |----|
94
口口口口 |----|
口口口口 |----|
口口口口 |----|
口口口口 |----|
95
口①口② |①---|
口口口口 |----|
口口口口 |②---|
口口口口 |----|
96
口口①口 |①---|
口③②口 |②---|
口④口口 |③---|
口口口口 |④---|
97
口口口口 |①---|
口口口口 |----|
口口口口 |②---|
①口②口 |----|
98
口口口口 |①---|
口口④口 |②---|
口②③口 |③---|
口①口口 |④---|
99
口①口② |①---|
口口口口 |----|
口口口口 |②---|
口口口口 |----|
100
口口①口 |①---|
口③②口 |②---|
口④口口 |③---|
口口口口 |④---|
101
口口口口 |①---|
口口口口 |----|
口口口口 |②---|
①口②口 |----|
102
口口口口 |①---|
口口④口 |②---|
口②③口 |③---|
口①口口 |④---|
103
②①①② |①---|
口口口口 |----|
口口口口 |②---|
口口口口 |----|


不确定度: 0

最終更新:2012年11月14日 15:56