R.P.G.~Rockin' Playing Game
SuG

ADVANCED

Level: 7
BPM: 205
Notes: 543

1
口口口口 |----|
口口口口 |----|
口口口口 |----|
口口口口 |----|
2
②口③口 |①---|
口②口③ |--②-|
口口口口 |----|
口口①口 |③---|
3
口③口② |①---|
③口②口 |--②-|
口口口口 |----|
口①口口 |③---|
4
⑤口口⑤ |①---|
口口口口 |②---|
④②①④ |③-④-|
③①②③ |--⑤-|
5
口口口口 |----|
口口口口 |----|
口口口口 |----|
口口口口 |----|
6
①②③口 |①-②-|
口口口口 |③-④-|
⑥口⑤⑤ |--⑤-|
口口口④ |--⑥-|
7
口口口口 |--①-|
③④⑤⑥ |--②-|
口②口口 |③-④-|
①①口口 |⑤-⑥-|
8
①②③口 |①-②-|
口口口口 |③-④-|
⑥口⑤⑤ |--⑤-|
口口口④ |--⑥-|
9
④口口⑥ |--①-|
③口口⑤ |--②-|
口②口口 |③-④-|
①①口口 |⑤-⑥-|
10
口①②口 |①-②-|
口③口口 |③-④-|
⑥口⑤⑤ |--⑤-|
口口口④ |--⑥-|
11
口口口口 |--①-|
③④⑤⑥ |--②-|
口②口口 |③-④-|
①①口口 |⑤-⑥-|
12
①②③口 |①-②-|
口口口口 |③-④-|
⑥口⑤⑤ |--⑤-|
口口口④ |--⑥-|
13
④口口⑥ |--①-|
③②②⑤ |--②-|
口口口口 |③-④-|
①①口口 |⑤-⑥-|
14
口口口口 |①---|
口口口口 |②---|
①③⑤② |③-④-|
②⑥④① |⑤-⑥-|
15
④口①④ |--①-|
③②口③ |②---|
口口口口 |③---|
口口口口 |④---|
16
口口口口 |①---|
口口口口 |②---|
②⑤③① |③-④-|
①④⑥② |⑤-⑥-|
17
④①口④ |--①-|
③口②③ |②---|
口口口口 |③---|
口口口口 |④---|
18
口口口口 |①---|
口口口口 |②---|
①③⑤② |③-④-|
②⑥④① |⑤-⑥-|
19
④口①④ |--①-|
③②口③ |②---|
口口口口 |③---|
口口口口 |④---|
20
口口口口 |①---|
口口口口 |②---|
②⑤③① |③-④-|
①④⑥② |⑤-⑥-|
21
④①口④ |--①-|
③口②③ |②---|
口口口口 |③---|
口口口口 |④---|
22
口口口口 |①---|
口口口口 |----|
口口口口 |----|
①口口① |----|
23
口口口口 |----|
口口口口 |----|
口口口口 |----|
口口口口 |----|
24
②口②口 |----|
口口口口 |①---|
口①口① |②---|
口③①口 |--③-|
25
口②口③ |①-②-|
口口口① |③-④-|
口口口口 |----|
④口⑤口 |--⑤-|
26
口④③口 |①---|
口口口② |②---|
口口口① |③---|
口口口口 |④---|
27
口口口口 |①---|
①①口口 |--②-|
②口口口 |----|
口③口口 |③---|
28
②口②口 |----|
口口口口 |①---|
口①口① |②---|
口③①口 |--③-|
29
口②口③ |①-②-|
口口口① |③-④-|
口口口口 |----|
④口⑤⑤ |⑤---|
30
口口④口 |①---|
③口口③ |②---|
①口口① |③---|
口②口口 |④---|
31
①口口① |--①-|
口③③口 |②-③-|
口②②口 |④---|
口④④口 |----|
32
口口口口 |①---|
口口口口 |②---|
①③⑤② |③-④-|
②⑥④① |⑤-⑥-|
33
④口①④ |--①-|
③②口③ |②---|
口口口口 |③---|
口口口口 |④---|
34
口口口口 |①---|
口口口口 |②---|
②⑤③① |③-④-|
①④⑥② |⑤-⑥-|
35
④①口④ |--①-|
③口②③ |②---|
口口口口 |③---|
口口口口 |④---|
36
口口口口 |①---|
口口口口 |②---|
①③⑤② |③-④-|
②⑥④① |⑤-⑥-|
37
④口①④ |--①-|
③②口③ |②---|
口口口口 |③---|
口口口口 |④---|
38
口口口口 |①---|
口口口口 |②---|
②⑤③① |③-④-|
①④⑥② |⑤-⑥-|
39
④①口④ |--①-|
③口②③ |②---|
口口口口 |③---|
口口口口 |④---|
40
口口口口 |①---|
口口口口 |②---|
③②③② |③---|
①④②① |--④-|
41
口②口③ |①-②-|
口口口① |③-④-|
口口口口 |----|
④口口口 |----|
42
口④④口 |----|
口口口③ |①---|
口口口② |②-③-|
口①①口 |--④-|
43
口口口口 |--①-|
①口口口 |--②-|
②口口口 |--③-|
口③口④ |④---|
44
②口②口 |----|
口口口口 |①---|
口①口① |②---|
口③①口 |--③-|
45
⑤②口③ |①-②-|
口口口① |③-④-|
口口口口 |----|
④口口口 |⑤---|
46
口③口口 |①---|
②④②口 |--②-|
口⑤①口 |③-④-|
口口口口 |⑤---|
47
口口口口 |----|
②口口② |①---|
口口口口 |②---|
①口口① |----|
48
口口口口 |①---|
口口口口 |②---|
口①③口 |③---|
口④②口 |④---|
49
②口口② |----|
口口口口 |①---|
①口口① |②---|
口口口口 |----|
50
口①③口 |①---|
口④②口 |②---|
口口口口 |③---|
口口口口 |④---|
51
口④口口 |①---|
②⑤②口 |②---|
口口①口 |③-④-|
③口口口 |--⑤-|
52
口口②口 |----|
口口口口 |①---|
口口③口 |②---|
口①④口 |③-④-|
53
口口口口 |----|
口①口① |----|
口口口口 |----|
口口口口 |①---|
54
口口口口 |----|
口口口口 |----|
口口口口 |----|
口口口口 |----|
55
①口①口 |----|
口④口口 |①---|
②口口口 |②-③-|
③口口口 |--④-|
56
口口④口 |----|
口口③口 |①---|
口口口口 |②---|
口①②口 |③-④-|
57
口口口口 |----|
口口口口 |----|
口口口口 |----|
口口口口 |----|
58
口口口口 |----|
口口口口 |----|
口口口口 |----|
口口口口 |----|
59
口③口口 |----|
①④①口 |①---|
口口口口 |②-③-|
②口口口 |--④-|
60
口口②口 |----|
口口口口 |①---|
口口③口 |②---|
口①④口 |③-④-|
61
口口口口 |----|
口①口① |----|
口口口口 |----|
口口口口 |①---|
62
①①口口 |----|
②口口口 |----|
口口口口 |----|
口口口口 |①-②-|
63
口口口口 |----|
口①①口 |----|
口②口口 |----|
口口口口 |①-②-|
64
口口口口 |----|
口口口口 |----|
口口②口 |----|
口①口① |①-②-|
65
口口口口 |----|
口口口口 |----|
口口口口 |----|
口口口口 |----|
66
口口口口 |----|
口口口口 |----|
口口口① |----|
口①口口 |①---|
67
口③③② |①---|
口②口① |②---|
④①口口 |③---|
口口④口 |④---|
68
②口口口 |①---|
①口②口 |----|
口口①口 |②---|
口口口口 |----|
69
⑤口口③ |①---|
口⑥⑥② |②-③-|
口口口口 |④---|
口④①口 |⑤-⑥-|
70
口口口口 |①---|
口口口口 |②-③-|
③②②③ |----|
①④④① |④---|
71
①③③② |①---|
口②①口 |--②-|
口口口口 |----|
口口口口 |③---|
72
口口口口 |----|
口口口口 |----|
②口口口 |----|
①口口口 |①-②-|
73
口⑤口④ |①---|
①口⑥③ |②-③-|
口口口② |④---|
口口口口 |⑤-⑥-|
74
口口口口 |--①-|
口口口口 |②---|
口①③口 |③---|
口③②口 |----|
75
③口口⑤ |①---|
②口口口 |②-③-|
口口口④ |④---|
①⑥⑥口 |⑤-⑥-|
76
口③③口 |--①-|
口①①口 |②---|
⑤②②口 |③---|
④口口口 |④-⑤-|
77
口口口④ |①---|
①口口③ |②-③-|
口⑤口② |④---|
口口⑥口 |⑤-⑥-|
78
口口口口 |①---|
口③口口 |②-③-|
口口②口 |----|
④①口④ |④---|
79
①③③② |①---|
口②①口 |--②-|
口口口口 |----|
口口口口 |③---|
80
口口口口 |----|
口口口口 |----|
②口口口 |----|
①口口口 |①-②-|
81
口⑤口④ |①---|
①口⑥③ |②-③-|
口口口② |④---|
口口口口 |⑤-⑥-|
82
口口口口 |--①-|
口口口口 |②---|
口①③口 |③---|
口③②口 |----|
83
③口口⑤ |①---|
②口口口 |②-③-|
口口口④ |④---|
①⑥⑥口 |⑤-⑥-|
84
口③③口 |--①-|
口①①口 |②---|
④②②④ |③---|
口口口口 |④---|
85
①口口① |①---|
口②口口 |----|
口口口口 |----|
口口口口 |②---|
86
口口口口 |①-②-|
口口口口 |--③-|
③④①口 |--④-|
口②口口 |----|
87
①口①口 |①---|
口口②口 |----|
口口口口 |----|
口口口口 |②---|
88
口口⑤口 |①-②-|
口口口口 |--③-|
口③④① |--④-|
口口②口 |--⑤-|
89
口①口① |①---|
口口口口 |----|
口口口口 |----|
②②口口 |②---|
90
口口口③ |①-②-|
②口口口 |--③-|
口④④① |--④-|
口口口口 |----|
91
③①①③ |①---|
口②②口 |②---|
口④口口 |--③-|
口口口口 |--④-|
92
口口口口 |--①-|
口口口口 |--②-|
口口②口 |--③-|
④③①④ |④---|
93
③①①③ |①---|
口②②口 |②---|
口④口口 |--③-|
口口口口 |--④-|
94
口口口口 |--①-|
口④口口 |--②-|
口口③口 |--③-|
口②①口 |④---|
95
①②③口 |①-②-|
口口口口 |③---|
⑥口⑤⑤ |④-⑤-|
口口口④ |--⑥-|
96
口口口口 |--①-|
口③④⑤ |--②-|
口②口口 |③-④-|
①①口口 |⑤---|
97
①②③口 |①-②-|
口口口口 |③---|
⑥口⑤⑤ |④-⑤-|
口口口④ |--⑥-|
98
④口口口 |--①-|
③口口⑤ |②---|
口②口口 |③-④-|
①①口口 |⑤---|
99
口①②③ |①-②-|
口口口口 |③---|
⑥口⑤⑤ |④-⑤-|
口口口④ |--⑥-|
100
口口口口 |--①-|
口③④⑤ |--②-|
口②口口 |③-④-|
①①口口 |⑤---|
101
①②③口 |①-②-|
口口口口 |③---|
⑥口⑤⑤ |④-⑤-|
⑦⑦口④ |⑥-⑦-|
102
口③口口 |--①-|
口口④口 |②---|
口②口口 |③---|
口口①口 |④---|
103
口口口口 |①---|
①口口① |----|
口口口口 |②---|
②②②② |----|


不确定度: 0

最終更新:2012年11月14日 15:56