R.P.G.~Rockin' Playing Game
SuG

EXTREME

Level: 9
BPM: 205
Notes: 869

1
口口口口 |----|
口口口口 |----|
口口口口 |----|
口口口口 |----|
2
⑥口口⑧ |①-②-|
①口①③ |③-④-|
口④⑤④ |⑤-⑥-|
⑦②⑦口 |⑦-⑧-|
3
⑥口口⑧ |①-②-|
①口①③ |③-④-|
口④⑤④ |⑤-⑥-|
⑦②⑦口 |⑦-⑧-|
4
⑤⑤⑤⑤ |①---|
①口①口 |②---|
③④③④ |③-④-|
口②口② |--⑤-|
5
口口口口 |----|
口口口口 |----|
口口口口 |----|
口口口口 |----|
6
①⑤②① |①-②-|
⑥②口③ |③-④-|
③⑦口口 |--⑤-|
口④⑥⑤ |⑥-⑦-|
7
口⑥②① |①-②-|
⑦口④③ |③-④-|
口⑧⑤口 |⑤-⑥-|
②④⑦口 |⑦-⑧-|
8
①⑤②① |①-②-|
⑥②口③ |③-④-|
③⑦口口 |--⑤-|
口④⑥⑤ |⑥-⑦-|
9
口⑥②① |①-②-|
⑦口④③ |③-④-|
口口⑤⑤ |⑤-⑥-|
②④⑦口 |⑦---|
10
①⑤②① |①-②-|
⑥②口③ |③-④-|
③⑦口口 |--⑤-|
口④⑥⑤ |⑥-⑦-|
11
口⑥②① |①-②-|
⑦口④③ |③-④-|
口⑧⑤⑤ |⑤-⑥-|
②④⑦口 |⑦-⑧-|
12
①⑤②① |①-②-|
⑥②口③ |③-④-|
③⑦口口 |--⑤-|
口④⑥⑤ |⑥-⑦-|
13
口⑥②① |①-②-|
⑦口④③ |③-④-|
口口⑤⑤ |⑤-⑥-|
②④⑦口 |⑦---|
14
①口口⑤ |①---|
④③③② |②---|
①口口⑤ |③---|
④口口② |④-⑤-|
15
①④④口 |--①-|
口④④② |②---|
①③③口 |③---|
口③③② |④---|
16
⑤口口① |①---|
②口口④ |②---|
⑤③③① |③---|
②口口④ |④-⑤-|
17
口③③① |--①-|
②③③口 |②---|
口④④① |③---|
②④④口 |④---|
18
①口口⑤ |①---|
④③③② |②---|
①口口⑤ |③---|
④口口② |④-⑤-|
19
①④④口 |--①-|
口④④② |②---|
①③③口 |③---|
口③③② |④---|
20
⑤口口① |①---|
②口口④ |②---|
⑤口③① |③---|
②③口④ |④-⑤-|
21
口③④① |--①-|
②④③口 |②---|
口③④① |③---|
②④③口 |④---|
22
①口口口 |①---|
④口口① |②---|
①口口③ |③---|
②口口① |④---|
23
口④口口 |①---|
口口③③ |②---|
②口口口 |③---|
口口①① |④---|
24
③口③口 |①---|
③③③口 |②---|
③②③② |③---|
①④②① |--④-|
25
口②口③ |①-②-|
口口口① |③-④-|
口口口口 |----|
④口⑤口 |--⑤-|
26
口④③口 |①---|
口口口② |②---|
口口口① |③---|
口口口口 |④---|
27
口口口口 |①---|
①①口口 |--②-|
②口口口 |----|
口③口口 |③---|
28
②口②口 |----|
②②②口 |①---|
②①②① |②---|
口③①口 |--③-|
29
口②口③ |①-②-|
口口口① |③-④-|
口口口口 |----|
④口⑤⑤ |⑤---|
30
口口④口 |①---|
③③③③ |②---|
①①①① |③---|
口②口口 |④---|
31
口口口口 |--①-|
口口口口 |②-③-|
口④③① |④---|
②③④口 |----|
32
①口口⑤ |①---|
④③③② |②---|
①口口⑤ |③---|
④口口② |④-⑤-|
33
①④④口 |--①-|
口④④② |②---|
①③③口 |③---|
口③③② |④---|
34
⑤口口① |①---|
②口口④ |②---|
⑤③③① |③---|
②口口④ |④-⑤-|
35
口③③① |--①-|
②③③口 |②---|
口④④① |③---|
②④④口 |④---|
36
①口口⑤ |①---|
④③③② |②---|
①口口⑤ |③---|
④口口② |④-⑤-|
37
①④④口 |--①-|
口④④② |②---|
①③③口 |③---|
口③③② |④---|
38
⑤口口① |①---|
②口口④ |②---|
⑤③③① |③---|
②口口④ |④-⑤-|
39
口③③① |--①-|
②口口口 |②---|
口口口① |③---|
②口口④ |④---|
40
①③口③ |①---|
口③③③ |②---|
②③②③ |③---|
口②④口 |--④-|
41
③口②口 |①-②-|
①口口口 |③-④-|
口口口口 |----|
口口口④ |----|
42
口④④口 |----|
③口口口 |①---|
②口口口 |②-③-|
口①口口 |--④-|
43
口口口口 |--①-|
口口口① |--②-|
口口口② |--③-|
④口③口 |④---|
44
口②口② |----|
口②②② |①---|
①②①② |②---|
口①③口 |--③-|
45
③口②口 |①-②-|
①口口口 |③-④-|
口口口口 |----|
⑤⑤口④ |⑤---|
46
口④④口 |①---|
口①②② |--②-|
⑤①③⑤ |③-④-|
⑤口③⑤ |⑤---|
47
①⑤口② |----|
口口④口 |①---|
口③口口 |②-③-|
口①②口 |④-⑤-|
48
口口口口 |①-②-|
口③⑥③ |③---|
①⑦②⑤ |④-⑤-|
口④口口 |⑥-⑦-|
49
口③④口 |①-②-|
①⑦口口 |③---|
口口⑥口 |④-⑤-|
②⑤口④ |⑥-⑦-|
50
④口口④ |①-②-|
③口③⑥ |③-④-|
⑥②口① |⑤---|
⑤口口⑤ |⑥---|
51
口①①口 |①---|
②③⑤口 |②---|
口口③口 |③-④-|
④⑥②口 |⑤-⑥-|
52
②③①口 |①---|
口口口④ |②---|
④⑤口③ |③---|
口口口② |④-⑤-|
53
口口口① |①---|
口口④口 |②---|
口口③口 |③---|
④④②口 |④---|
54
口口①口 |①---|
口口口④ |②---|
口口口③ |③---|
口口口② |④---|
55
口口口① |①---|
②③⑤口 |②---|
口口③口 |③-④-|
④⑥②口 |⑤-⑥-|
56
②③①口 |①---|
口口口④ |②---|
④⑤口③ |③---|
口口口② |④-⑤-|
57
口口口① |①---|
口口④口 |②---|
口口③口 |③---|
口口②口 |④---|
58
口口①① |①---|
口口口② |--②-|
口口口口 |----|
口口口③ |③---|
59
口口口口 |①---|
②③⑤口 |②---|
口口③① |③-④-|
④⑥②口 |⑤-⑥-|
60
②③①口 |①---|
口口口④ |②---|
④⑤口③ |③---|
口口口② |④-⑤-|
61
口口口① |①---|
口口④口 |②---|
口口③口 |③---|
④④②口 |④---|
62
口口①口 |①---|
口口口④ |②---|
④⑤口③ |③---|
口口口② |④-⑤-|
63
⑤⑥④① |①---|
口口③口 |②---|
口口口口 |③-④-|
口口②⑥ |⑤-⑥-|
64
口口口② |--①-|
口口口① |②---|
口口④口 |③-④-|
⑤⑥③口 |⑤-⑥-|
65
口口①④ |①---|
口口口③ |②---|
口口口口 |③-④-|
口口⑤② |--⑤-|
66
口口②口 |--①-|
口口①口 |②---|
口口口④ |③-④-|
⑤口⑥③ |⑤-⑥-|
67
③③⑥口 |①-②-|
⑤⑤④口 |③-④-|
⑦⑦②口 |⑤-⑥-|
口①口口 |⑦---|
68
②口口② |①---|
口口口口 |----|
口口口口 |②---|
①①口① |----|
69
口口口口 |①---|
⑤⑥⑤③ |②-③-|
口②③② |④---|
①口口④ |⑤-⑥-|
70
①口口② |①---|
④口口口 |②-③-|
口口口口 |----|
口③③④ |④---|
71
口①①口 |①---|
口口口口 |--②-|
②②②② |----|
③③③③ |③---|
72
口口口口 |----|
口口口口 |----|
②②口口 |----|
①口口口 |①-②-|
73
⑤④④④ |①---|
①①③③ |②-③-|
口口口② |④---|
口口口⑥ |⑤-⑥-|
74
口口口口 |--①-|
口口口口 |②---|
口②②口 |③---|
①③③口 |----|
75
⑤口口① |①---|
⑥④③② |②-③-|
⑤口口① |④---|
口口口口 |⑤-⑥-|
76
口③③口 |--①-|
口口口口 |②---|
⑤⑤口口 |③---|
④②①口 |④-⑤-|
77
⑤④④④ |①---|
①①③③ |②-③-|
口口口② |④---|
口口口⑥ |⑤-⑥-|
78
口口口口 |①---|
④口口④ |②-③-|
口②②口 |----|
①③③口 |④---|
79
口①①口 |①---|
口口口口 |--②-|
②②②② |----|
③③③③ |③---|
80
口口口口 |----|
口口口口 |----|
②②口口 |----|
①口口口 |①-②-|
81
⑤④④④ |①---|
①①③③ |②-③-|
口口口② |④---|
口口口⑥ |⑤-⑥-|
82
口口口口 |--①-|
口口口口 |②---|
口②②口 |③---|
①③③口 |----|
83
⑤口口① |①---|
⑥④③② |②-③-|
⑤口口① |④---|
口口口口 |⑤-⑥-|
84
口③③口 |--①-|
口口口口 |②---|
④④④④ |③---|
口②①口 |④---|
85
①口口① |①---|
口②口口 |----|
②口②口 |----|
口②口口 |②---|
86
③口口③ |①-②-|
口口②口 |--③-|
口①口口 |--④-|
口口口④ |----|
87
口口①口 |①---|
口①口① |----|
口口①口 |----|
②②口口 |②---|
88
①口②口 |①-②-|
②③①④ |--③-|
⑤④口③ |--④-|
口口⑤口 |--⑤-|
89
②②②② |①---|
口口口口 |----|
口口①口 |----|
①口口口 |②---|
90
口口口口 |①-②-|
③①②口 |--③-|
口②①③ |--④-|
④④④④ |----|
91
①②口① |①---|
③④③口 |②---|
口②口口 |--③-|
口口口口 |--④-|
92
④口②口 |--①-|
口口口口 |--②-|
③口口③ |--③-|
口①口④ |④---|
93
口②口口 |①---|
③④③口 |②---|
口②口口 |--③-|
①口①口 |--④-|
94
口②口口 |--①-|
口口③口 |--②-|
口④口④ |--③-|
口①③口 |④---|
95
①⑥②① |①-②-|
⑦②口③ |③-④-|
③⑧⑤口 |⑤-⑥-|
口④⑦⑥ |⑦-⑧-|
96
口⑥②① |①-②-|
⑦口④③ |③-④-|
口口⑤⑤ |⑤-⑥-|
②④⑦口 |⑦---|
97
①⑥②① |①-②-|
⑦②口③ |③-④-|
③⑧⑤口 |⑤-⑥-|
口④⑦⑥ |⑦-⑧-|
98
口⑥②① |①-②-|
⑦口④③ |③-④-|
口⑧⑤⑤ |⑤-⑥-|
②④⑦口 |⑦-⑧-|
99
①⑥②① |①-②-|
⑦②口③ |③-④-|
③⑧⑤口 |⑤-⑥-|
口④⑦⑥ |⑦-⑧-|
100
口⑥②① |①-②-|
⑦口④③ |③-④-|
口⑧⑤⑤ |⑤-⑥-|
②④⑦口 |⑦-⑧-|
101
①⑥②① |①-②-|
⑦②口③ |③-④-|
③⑧⑤口 |⑤-⑥-|
口④⑦⑥ |⑦-⑧-|
102
口⑥②① |①-②-|
⑦口④③ |③-④-|
口口⑤⑤ |⑤-⑥-|
②④⑦⑧ |⑦-⑧-|
103
②口口② |①---|
口②②口 |----|
②①口② |②---|
口口口口 |----|


不确定度: 0

最終更新:2012年11月14日 15:56