ニンジャマンジャパンのテーマ
ニンジャマンジャパン

ADVANCED

Level: 6
BPM: 170
Notes: 360

1
口口口口 |----|
口口口口 |----|
口口口口 |----|
口口口口 |----|
2
口口口口 |----|
口①①口 |----|
口口口口 |----|
口口口口 |--①-|
3
口口口口 |--①-|
口口口口 |②---|
①口口② |③-④-|
③④⑤⑥ |⑤-⑥-|
4
口口口口 |----|
口口口口 |----|
口①①口 |----|
口口口口 |--①-|
5
⑤口④③ |--①-|
①口口② |②---|
口口口口 |③-④-|
口口口口 |--⑤-|
6
口口口口 |----|
口①口口 |----|
口口①口 |----|
口口口口 |--①-|
7
口口口口 |----|
口口①口 |----|
口①口口 |----|
口口口口 |--①-|
8
口口口口 |----|
口口口口 |----|
口口口口 |----|
口口口口 |----|
9
口③②① |①-②-|
口⑦口口 |③-④-|
口口⑧口 |⑤-⑥-|
④⑤⑥口 |⑦-⑧-|
10
①口口口 |--①-|
口口口② |②-③-|
③口口口 |④-⑤-|
⑦⑥⑤④ |⑥-⑦-|
11
①②③口 |①-②-|
口⑥口④ |③---|
口口⑥⑤ |④-⑤-|
口口口口 |--⑥-|
12
口口口口 |----|
口口①口 |①-②-|
口①口口 |----|
②②②② |----|
13
①②③口 |①-②-|
口⑥口④ |③---|
口口⑥⑤ |④-⑤-|
口口口口 |--⑥-|
14
口口口口 |----|
口口①口 |①-②-|
口①口口 |----|
②②②② |----|
15
口口①口 |----|
②②①口 |①---|
口④③③ |②-③-|
口④口口 |--④-|
16
口①①口 |----|
④②③④ |--①-|
④③②④ |--②-|
口口口口 |③-④-|
17
口①口口 |----|
②口口② |----|
②口口② |----|
口口①口 |①-②-|
18
口口口口 |----|
口口口口 |----|
口口口口 |----|
口口口口 |----|
19
①口②③ |①---|
⑥⑤口④ |②-③-|
口口口口 |④---|
口口口口 |⑤-⑥-|
20
口口口口 |----|
口口口口 |----|
口口口口 |----|
口口口口 |----|
21
口口口口 |①---|
口口口口 |②---|
①口②口 |③---|
⑤④口③ |④-⑤-|
22
口口口口 |----|
口口口口 |----|
口口口口 |----|
口口口口 |----|
23
口口⑤① |①---|
口口口口 |②---|
口口④② |③-④-|
口口③口 |--⑤-|
24
口口口口 |----|
口①口口 |①---|
口口口口 |②-③-|
③②口口 |----|
25
口②口口 |①---|
①口口口 |②---|
口③⑤口 |③-④-|
口④口口 |--⑤-|
26
口口口口 |----|
口口口口 |----|
口口口口 |----|
口口口口 |----|
27
①口口口 |①---|
口④③② |②-③-|
⑤⑥口口 |④---|
口口口口 |⑤-⑥-|
28
口口口口 |----|
口口口口 |----|
口口口口 |--①-|
口口②① |②---|
29
口口口② |①---|
③④⑤口 |--②-|
口口口口 |--③-|
①口口口 |④-⑤-|
30
口口口口 |----|
口口口口 |----|
口口口口 |----|
口口口口 |----|
31
口口口口 |----|
口口口口 |①---|
口②口① |②---|
③④口口 |③-④-|
32
①口口② |----|
口④③口 |①---|
口口口口 |②---|
口口口口 |③-④-|
33
口口口口 |--①-|
口口口口 |②---|
口口口口 |----|
口②①口 |----|
34
口口口口 |----|
口口口口 |----|
口口口口 |----|
口口口口 |----|
35
①口口① |①---|
口②②口 |----|
口③③口 |--②-|
口④④口 |③-④-|
36
口口口口 |----|
③口口③ |----|
②口口② |--①-|
①口口① |②-③-|
37
口口口口 |----|
口口口口 |----|
口口口口 |----|
口口口口 |----|
38
①口口口 |----|
口口口口 |----|
口口口口 |----|
口口口口 |①---|
39
口口口③ |①-②-|
口口④口 |----|
口⑤①口 |--③-|
口口口② |④-⑤-|
40
③口口口 |----|
口①②口 |----|
口②①口 |--①-|
口口口③ |②-③-|
41
口口口① |①---|
口口口① |----|
①口口口 |----|
①口口口 |----|
42
口口口口 |----|
口口口口 |----|
口口口口 |----|
口口口口 |----|
43
口①口口 |①-②-|
①口②口 |----|
口②口口
口口口口

口口口③
口口③口
口口口口 |----|
口口口口 |--③-|
44
②口口口 |--①-|
口①口口 |②---|
口口①口 |----|
口口口② |----|
45
口口①口 |①-②-|
口②口① |----|
口口②口
口口口口

③口口口
口③口口
口口口口 |----|
口口口口 |--③-|
46
口口口② |--①-|
口口①口 |②---|
口①口口 |----|
②口口口 |----|
47
口①①口 |①-②-|
口②②口 |----|
口口口口 |----|
口③③口 |--③-|
48
②口口② |--①-|
口口口口 |②---|
①口口① |----|
口口口口 |----|
49
①⑧⑧① |①-②-|
②⑦⑦② |③-④-|
③⑥⑥③ |⑤-⑥-|
④⑤⑤④ |⑦-⑧-|
50
口口口口 |--①-|
①⑤⑤① |②---|
②④④② |③-④-|
口③③口 |⑤---|
51
①②③口 |①-②-|
口⑥口④ |③---|
口口⑥⑤ |④-⑤-|
口口口口 |--⑥-|
52
口口口口 |----|
口口①口 |①-②-|
口①口口 |----|
②②②② |----|
53
①②③口 |①-②-|
口⑥口④ |③---|
口口⑥⑤ |④-⑤-|
口口口口 |--⑥-|
54
口口口口 |----|
口口①口 |①-②-|
口①口口 |----|
②②②② |----|
55
①②口口 |--①-|
口③口口 |②-③-|
口④口口 |④-⑤-|
口⑤口⑥ |--⑥-|
56
口口口① |--①-|
⑤④③② |②-③-|
口口口口 |④-⑤-|
口口口口 |----|
57
①②口口 |--①-|
口⑤④③ |②-③-|
⑥口口⑥ |④-⑤-|
口⑦⑦口 |⑥-⑦-|
58
口口口口 |----|
①口口口 |----|
口口口② |--①-|
③口口口 |②-③-|
59
①②③口 |①-②-|
口⑥口④ |③---|
口口⑥⑤ |④-⑤-|
口口口口 |--⑥-|
60
口口口口 |----|
口口①口 |①-②-|
口①口口 |----|
②②②② |----|
61
①②③口 |①-②-|
口⑥口④ |③---|
口口⑥⑤ |④-⑤-|
口口口口 |--⑥-|
62
口口口口 |----|
口口①口 |①-②-|
口①口口 |----|
②②②② |----|
63
口口①口 |----|
②②①口 |①---|
口④③③ |②-③-|
口④口口 |--④-|
64
口①①口 |----|
④②③④ |--①-|
④③②④ |--②-|
口口口口 |③-④-|
65
口口口口 |----|
口口口口 |----|
口口口口 |----|
口口口口 |----|
66
①②②① |--①-|
口口口口 |②---|
口③③口 |③---|
④口口④ |④---|
67
①口口② |①-②-|
口③③口 |③---|
口口口口
口口口口

⑥口口⑥
⑤口口⑤
口④④口 |④---|
④口口④ |⑤-⑥-|
68
口③口口 |--①-|
④①①④ |②---|
④②②④ |----|
口口③口 |③-④-|
69
口口口口 |----|
口口口口 |----|
口口口口 |----|
口口口口 |----|
70
口①①口 |----|
口口口口 |----|
口口口口 |----|
口口口口 |--①-|
71
口口口口 |--①-|
①口口② |②---|
③口口④ |③-④-|
口⑤⑤口 |--⑤-|
72
口口口口 |----|
口口口口 |----|
口①①口 |----|
口口口口 |--①-|
73
口口口口 |----|
口①①口 |----|
口口口口 |----|
口口口口 |--①-|
74
口口口口 |----|
口口口口 |----|
口口口口 |----|
口口口口 |----|
75
④口口① |①---|
口③口① |--②-|
②口③口 |----|
②口口④ |③-④-|


不确定度: 0

最終更新:2012年11月14日 15:55