ニンジャマンジャパンのテーマ
ニンジャマンジャパン

EXTREME

Level: 7
BPM: 170
Notes: 617

1
口口口口 |----|
口口口口 |----|
口口口口 |----|
口口口口 |----|
2
口口口口 |----|
口①①口 |----|
口①①口 |----|
口口口口 |--①-|
3
③④⑤⑥ |--①-|
口口口口 |②---|
口口口口 |③-④-|
口②①口 |⑤-⑥-|
4
口口口口 |----|
口④④口 |①---|
①④④① |②-③-|
②口口③ |--④-|
5
口①②口 |--①-|
口口口口 |②---|
口口口口 |③-④-|
⑤口④③ |--⑤-|
6
口①②口 |①-②-|
口③④口 |③-④-|
⑦⑤⑥⑦ |⑤-⑥-|
口口口口 |--⑦-|
7
①口口① |--①-|
②⑤⑤② |②---|
④⑤⑤④ |③-④-|
③口口③ |--⑤-|
8
口②②③ |--①-|
口⑦口④ |②---|
口⑦口⑤ |③④⑤⑥|
口①①⑥ |⑦---|
9
①②③口 |①-②-|
口⑥⑤④ |③-④-|
⑦⑧口口 |⑤-⑥-|
口口口口 |⑦-⑧-|
10
口①②口 |--①-|
口③④口 |②-③-|
口⑤⑥口 |④-⑤-|
口⑦口口 |⑥-⑦-|
11
⑤④口① |①-②-|
③⑥口② |③---|
②口⑥③ |④-⑤-|
①口④⑤ |--⑥-|
12
口口口口 |----|
②口①② |①-②-|
②①口② |----|
口口口口 |----|
13
⑤④口① |①-②-|
③⑥口② |③---|
②口⑥③ |④-⑤-|
①口④⑤ |--⑥-|
14
口口口口 |----|
②口①② |①-②-|
②①口② |----|
口口口口 |----|
15
口①①口 |----|
②口口② |①---|
口③③口 |②-③-|
④口口④ |--④-|
16
④口口③ |----|
口①②口 |--①-|
口②①口 |--②-|
③口口④ |③-④-|
17
口口②口 |----|
口口②口 |----|
①口②口 |----|
口①口口 |①-②-|
18
①②口口 |--①-|
⑤⑥口口 |②-③-|
口⑦⑦口 |④-⑤-|
口口④③ |⑥-⑦-|
19
①②③④ |①-②-|
口口口⑤ |③-④-|
⑥口⑦口 |⑤---|
口⑦口⑥ |⑥-⑦-|
20
口①②口 |①-②-|
口③④口 |③-④-|
口⑤⑥口 |⑤-⑥-|
⑦口口⑧ |⑦-⑧-|
21
⑤口口口 |①---|
④⑤④口 |②---|
口口口口 |③---|
③②①口 |④-⑤-|
22
⑧口口⑦ |①-②-|
口⑥⑤口 |③-④-|
口④③口 |⑤-⑥-|
口②①口 |⑦-⑧-|
23
口口口口 |①-②-|
③口口① |③---|
口口口② |④-⑤-|
④⑤口⑥ |--⑥-|
24
口③②口 |----|
口口口① |①---|
口口口口 |②-③-|
口口口口 |----|
25
③④口⑤ |①---|
口口口⑤ |②---|
②口口口 |③-④-|
口①口口 |--⑤-|
26
口口口口 |----|
口口口口 |①-②-|
口口③④ |--③-|
①②口口 |④---|
27
①口口口 |①---|
⑥口口口 |②-③-|
②⑤口⑥ |④---|
③④口⑤ |⑤-⑥-|
28
口②①⑦ |--①-|
口④③⑥ |②-③-|
口口口⑤ |④-⑤-|
口口口口 |⑥-⑦-|
29
②口①口 |①---|
③口⑥口 |--②-|
④口口口 |③-④-|
⑤⑥口口 |⑤-⑥-|
30
口口口口 |①---|
口④⑤① |②-③-|
口②③口 |--④-|
口口①口 |⑤---|
31
口①①口 |①---|
口口口⑤ |②---|
口口口④ |③---|
②口③口 |④-⑤-|
32
②口①口 |----|
口口口口 |①---|
③口口口 |②---|
④口口口 |③-④-|
33
口④⑥口 |--①-|
口③⑤口 |②---|
口口口口 |③④⑤⑥|
口⑦①② |--⑦-|
34
口口口口 |①---|
口③③口 |②---|
口②②口 |③---|
口口①口 |----|
35
①口口① |①---|
口④④口 |②---|
③⑤⑤② |③-④-|
⑥口口⑥ |⑤-⑥-|
36
③口口口 |----|
②⑥⑥口 |①-②-|
①⑤⑤口 |③-④-|
口④④口 |⑤-⑥-|
37
②①①口 |①---|
③口口口 |②-③-|
口口口③
口口口②

口⑥⑤④
口口口口
口口口口 |--④-|
④⑤⑥口 |⑤-⑥-|
38
①口口口 |①---|
口④④口 |②-③-|
口③②口 |--④-|
口⑤⑤① |⑤---|
39
⑤口口⑤ |①-②-|
④口口④ |----|
③口口③ |--③-|
①口口② |④-⑤-|
40
口口口口 |----|
口①②③ |----|
③②①口 |--①-|
口口口口 |②-③-|
41
②③④口 |①-②-|
①口口口 |③-④-|
口口口①
口④③②

⑧口口⑤
⑦口口⑥
⑥口口⑦ |⑤-⑥-|
⑤口口⑧ |⑦-⑧-|
42
口口口口 |----|
口口口口 |----|
口①①口 |----|
①口口口 |①---|
43
①④④① |①-②-|
②口口② |----|
口口口口 |③---|
③口口③ |--④-|
44
③④⑤口 |--①-|
口①①口 |②---|
口②②口 |③-④-|
口口口口 |⑤---|
45
④⑪⑪③ |①-②-|
⑥口口⑤ |--③④|
②⑩⑨② |⑤⑥⑦⑧|
①⑧⑦① |⑨⑩⑪-|
46
②口口② |--①-|
口①①口 |②---|
口口口口 |③---|
③④④③ |④---|
47
⑦①①⑦ |①-②-|
口②②口 |--③-|
口④④口 |④-⑤-|
⑤⑥⑥③ |⑥-⑦-|
48
口口③口 |--①-|
②④口② |②-③-|
①⑤⑤① |④-⑤-|
口⑥⑥口 |⑥---|
49
口①②口 |①-②-|
口③④口 |③-④-|
口⑤⑥口 |⑤-⑥-|
口⑦⑧口 |⑦-⑧-|
50
口③③口 |--①-|
②⑧⑨② |②---|
①⑥⑦① |③-④⑤|
口④⑤口 |⑥⑦⑧⑨|
51
⑤④口① |①-②-|
③⑥口② |③---|
②口⑥③ |④-⑤-|
①口④⑤ |--⑥-|
52
口口口口 |----|
②口①② |①-②-|
②①口② |----|
口口口口 |----|
53
⑤④口① |①-②-|
③⑥口② |③---|
②口⑥③ |④-⑤-|
①口④⑤ |--⑥-|
54
口口口口 |----|
②口①② |①-②-|
②①口② |----|
口口口口 |----|
55
口①②口 |--①-|
③口口④ |②-③-|
口⑤⑥口 |④-⑤-|
口口口口 |--⑥-|
56
⑦⑤⑤口 |--①-|
口⑥⑥口 |②-③-|
口口口口 |④-⑤-|
①④③② |⑥-⑦-|
57
口口口① |①-②-|
口口口口 |③-④-|
②③④口
口口口口

⑧口口⑧
⑦口口⑦
口口口⑤ |⑤-⑥-|
口口口⑥ |⑦-⑧-|
58
口①②口 |--①-|
口③④口 |②-③-|
口⑤⑥口 |④-⑤-|
口⑦口口 |⑥-⑦-|
59
⑤④口① |①-②-|
③⑥口② |③---|
②口⑥③ |④-⑤-|
①口④⑤ |--⑥-|
60
口口口口 |----|
②口①② |①-②-|
②①口② |----|
口口口口 |----|
61
⑤④口① |①-②-|
③⑥口② |③---|
②口⑥③ |④-⑤-|
①口④⑤ |--⑥-|
62
口口口口 |----|
②口①② |①-②-|
②①口② |----|
口口口口 |----|
63
口①①口 |----|
②口口② |①---|
口③③口 |②-③-|
④口口④ |--④-|
64
④口口③ |----|
口①②口 |--①-|
口②①口 |--②-|
③口口④ |③-④-|
65
口口口口 |①---|
②口④⑤ |②---|
①口⑥③ |③-④-|
口口口口 |⑤-⑥-|
66
口口口口 |--①-|
口口口口 |②---|
口④④口 |③---|
①②口③ |④---|
67
③口口③ |①-②-|
②口口② |③---|
①口口①
口口口口

口口口口
⑥④⑤⑥
⑥⑤④⑥ |④---|
口口口口 |⑤-⑥-|
68
①口④① |--①-|
口口④口 |②---|
③口④口 |----|
②③口② |③-④-|
69
口口口口 |----|
③①口② |①---|
③①口② |②---|
口口口口 |③---|
70
口口口口 |①---|
口口①口 |②---|
口口①口
②口口②

③口口③
④⑤⑤④
口⑤⑤口 |③---|
口口口口 |④-⑤-|
71
③④④③ |--①-|
口口口口 |②---|
②口口② |③-④-|
①⑤⑤① |--⑤-|
72
口口口口 |①---|
口口口口 |②-③-|
③①①③
②口口②

口口口口
④口口④
口⑥⑥口 |--④-|
口⑤⑤口 |⑤-⑥-|
73
②①①② |----|
③口口③ |①-②-|
④⑥⑥④ |③-④-|
⑤口口⑤ |⑤-⑥-|
74
②口口③ |--①-|
②⑦⑦③ |②-③-|
④⑥⑥⑤ |④-⑤-|
④①①⑤ |⑥-⑦-|
75
①⑧⑧② |①-②-|
口⑧⑧③ |③-④-|
④⑦⑦⑤ |⑤-⑥-|
口口口⑥ |⑦-⑧-|


不确定度: 0

最終更新:2012年11月14日 15:55