MIND SHIFT
WORLD ORDER

BASIC

Level: 3
BPM: 130
Notes: 187

1
口口口口 |----|
口口口口 |----|
口口口口 |----|
口口口口 |----|
2
口口口口 |①---|
口口②口 |----|
口①①口 |----|
口口口口 |②---|
3
口①①口 |①---|
口②口口 |----|
口口口口 |----|
口口口口 |②---|
4
口口口口 |①---|
口口②口 |----|
口①①口 |----|
口口口口 |②---|
5
口①口口 |①---|
口口口口 |----|
口口口口 |----|
口口口口 |----|
6
口口口口 |①---|
①口口① |----|
口口②口 |----|
口口口口 |②---|
7
①口口① |①---|
口口口口 |----|
口②口口 |----|
口口口口 |②---|
8
口口②口 |①---|
①口口① |----|
口口口口 |----|
口口口口 |②---|
9
口口口口 |①---|
口①口口 |②---|
口④③② |③---|
口口口口 |④---|
10
②口口① |①---|
口口口口 |----|
口口口口 |②---|
口口口口 |----|
11
口口口口 |①---|
口口②① |----|
口口口口 |②---|
口口口口 |----|
12
口口①口 |①---|
口②口口 |----|
口口口口 |②---|
口口口口 |----|
13
口②口口 |①---|
①口口口 |----|
口口口口 |②---|
口口口口 |----|
14
口口口口 |①---|
口①口口 |----|
口②口口 |②---|
口口口口 |----|
15
口口口口 |①---|
口口口口 |----|
口口口口 |②---|
口①②口 |----|
16
口口口口 |①---|
口口②口 |----|
口口①口 |②---|
口口口口 |----|
17
口口①口 |①---|
口口口口 |----|
口②③口 |②---|
口口口口 |③---|
18
口①①口 |①---|
口口口口 |----|
口②②口 |②---|
口口口口 |----|
19
口口口口 |①---|
①口口① |----|
口口口口 |②---|
口②②口 |----|
20
口①①口 |①---|
口口口口 |----|
②口口② |②---|
口口口口 |----|
21
口口口口 |①---|
口②②口 |----|
口口口口 |②---|
口①①口 |----|
22
①口口① |①---|
口口口口 |----|
口②②口 |②---|
口口口口 |----|
23
口口口口 |①---|
口①①口 |----|
口口口口 |②---|
口②②口 |----|
24
①口口① |①---|
口口口口 |----|
②口口② |②---|
口口口口 |----|
25
口③③口 |①---|
口口口口 |----|
口②②口 |②---|
口①①口 |③---|
26
③口③口 |①---|
口②口① |②---|
口口口口 |----|
口口口口 |③---|
27
口口口口 |①---|
口③口③ |②---|
①口②口 |----|
口口口口 |③---|
28
口口口① |①---|
口③②口 |②---|
口口口口 |----|
口口口口 |③---|
29
①口口口 |①---|
口口口口 |----|
口口口口 |----|
口口口口 |----|
30
口③③口 |①---|
②口口口 |②---|
口口口① |----|
口口口口 |③---|
31
口口口口 |①---|
口③③① |②---|
②口口口 |----|
口口口口 |③---|
32
口口②口 |①---|
口口口口 |②---|
口③①口 |----|
口口口口 |③---|
33
口①口口 |①---|
口口口口 |----|
口口口口 |----|
口口口口 |----|
34
口口①口 |①---|
口口口口 |②---|
口口②口 |----|
口口口口 |----|
35
口①口口 |①---|
口口口口 |②---|
口②口口 |----|
口口口口 |----|
36
口口口① |①---|
口③②口 |②---|
口口口口 |----|
口口口口 |③---|
37
①口口口 |①---|
口口口口 |----|
口口口口 |----|
口口口口 |----|
38
口②①口 |①---|
口口口口 |--②-|
口①②口 |----|
口口口口 |----|
39
②口口① |①---|
口口口口 |--②-|
①口③② |----|
口口口口 |③---|
40
口③②口 |①---|
口①口口 |--②-|
口口口④ |③---|
口口口口 |④---|
41
口口口口 |①---|
口口口口 |②---|
①口口④ |③---|
口②③口 |④---|
42
①口口① |①---|
口口口口 |----|
口②②口 |----|
口口口口 |②---|
43
口口口口 |①---|
①口口① |----|
口口口口 |----|
口②②口 |②---|
44
口口口口 |①---|
口①①口 |----|
口②②口 |----|
口口口口 |②---|
45
①口口① |①---|
口口口口 |----|
口口口口 |----|
口口口口 |----|
46
①口口① |①---|
口口口口 |----|
口②②口 |----|
口口口口 |②---|
47
口口口口 |①---|
①口口① |----|
口口口口 |----|
口②②口 |②---|
48
口口口口 |①---|
口①①口 |----|
口②②口 |----|
口口口口 |②---|
49
①口口① |①---|
口口口口 |----|
口③②口 |②---|
口口口口 |③---|
50
口口口① |①---|
口口②口 |②---|
④口口③ |③---|
口口口口 |④---|
51
②口④口 |①---|
口①口口 |②---|
口口③口 |③---|
口口口口 |④---|
52
口口④口 |①---|
口口③口 |②---|
口②口口 |③---|
口①口口 |④---|
53
①口口口 |①---|
②④③口 |②---|
口口口口 |③---|
口口口口 |④---|
54
口口口口 |①---|
④口口③ |②---|
口口②口 |③---|
口口口① |④---|
55
口口口口 |①---|
口口④口 |②---|
口①口口 |③---|
②口③口 |④---|
56
口①口口 |①---|
口②口口 |②---|
口口③口 |③---|
口口④口 |④---|
57
口口④口 |①---|
口口③口 |②---|
口②口口 |③---|
口①口口 |④---|
58
①口口① |①---|
口口口口 |----|
口口口口 |----|
口口口口 |----|


不确定度: 0

最終更新:2012年11月14日 15:54