MIND SHIFT
WORLD ORDER

ADVANCED

Level: 6
BPM: 130
Notes: 348

1
口口口口 |----|
口口口口 |----|
口口口口 |----|
口口口口 |----|
2
口口口口 |①---|
口口口口 |②---|
口②口口
口口①口

口口口口
口口③口
口口口口 |③---|
口④④口 |④---|
3
口口口① |①---|
②口口口 |②---|
口口口口
口口口口

④口口④
口口口口
口口口③ |③---|
口口口口 |④---|
4
④口口④ |①---|
口口③口 |②---|
口②口口 |③---|
口口①口 |④---|
5
口①①口 |①---|
口口口口 |----|
口口口口 |----|
口口口口 |----|
6
口口口口 |①---|
口口口口 |②---|
口口②口
口①口口

口口口口
口③口口
口口口口 |③---|
口④④口 |④---|
7
①④④口 |①---|
口口口② |②---|
③口口口 |③---|
口口口口 |④---|
8
口口口口 |①---|
口口口口 |②---|
口口②口
口①口口

口口口口
口③口口
口口口口 |③---|
口④④口 |④---|
9
①口口① |①---|
口口口口 |②---|
口④③② |③---|
口口口口 |④---|
10
口口口② |①---|
②口口口 |----|
①口口① |②---|
口口口口 |----|
11
①口口口 |①---|
口②②① |----|
口口口口 |②---|
口口口口 |----|
12
口②①口 |①---|
口口口口 |----|
口①②口 |②---|
口口口口 |----|
13
口口口口 |①---|
①口口① |----|
口②②口 |②---|
口口口口 |----|
14
②口口① |①---|
口口口口 |----|
①口口② |②---|
口口口口 |----|
15
口②②口 |①---|
口口口口 |----|
口①①口 |②---|
口口口口 |----|
16
口口口口 |①---|
②口口① |----|
①口口② |②---|
口口口口 |----|
17
口口①口 |①---|
口口口③ |②-③-|
口①口②
口口口口

口口口口
口口口口
口⑤⑤口 |④---|
口④④口 |⑤---|
18
②口口① |①---|
④口口① |②---|
口口③口 |③---|
口口③口 |④---|
19
口①口口 |①---|
口①口口 |②---|
②③口口 |③---|
④③口口 |④---|
20
②口①口 |①---|
④口①口 |②---|
口口口③ |③---|
口口口③ |④---|
21
口③口口 |①---|
口③①口 |②---|
②口①口 |③---|
④口口口 |④---|
22
②口①口 |①---|
口口③① |②---|
④③口口 |③---|
口口口口 |④---|
23
口口口③ |①---|
②口③口 |②---|
口口①口 |③---|
④口口① |④---|
24
②口口口 |①---|
口①口口 |②---|
④口①③ |③---|
口口③口 |④---|
25
口①口口 |①---|
②口①③ |②---|
口口③口 |③---|
④口口口 |④---|
26
口口口② |①---|
口④口③ |②-③-|
口口口① |④---|
口①口⑤ |⑤---|
27
口口②口 |①---|
④口③口 |②-③-|
口口①口 |④---|
①口口口 |----|
28
口口②① |①---|
③口①② |--②-|
口口口口 |③---|
口①④④ |④---|
29
口①口口 |①---|
口②口口 |②---|
③口①① |③---|
④口口口 |④---|
30
口口②① |①---|
口③口口 |--②-|
口口②① |③---|
口①④④ |④---|
31
口口口口 |①---|
③口①① |--②-|
口口②② |③---|
①口口口 |----|
32
口口口口 |①---|
④口口② |②-③-|
口口⑤③ |④---|
口①口① |⑤---|
33
口①①口 |①---|
口②口口 |②---|
③口口口 |③---|
④口口口 |④---|
34
口口口口 |①---|
口④口② |②-③-|
口口口③ |④---|
口①口① |----|
35
口①口口 |①---|
口口②口 |②-③-|
口④③口 |④---|
口口①口 |----|
36
①口口③ |①---|
口口口⑤ |②-③-|
④口口口 |④---|
口口②① |⑤---|
37
口④口口 |①---|
③口口口 |②---|
口②口① |③---|
①口口口 |④---|
38
口口①② |①---|
口③②① |--②-|
口口口口 |③---|
口①口口 |----|
39
口①口口 |①---|
口口口④ |--②-|
口③②② |③---|
口口①① |④---|
40
①口①② |①---|
口口③口 |--②-|
③口口口 |③---|
口口④④ |④---|
41
④④①① |①---|
③口口口 |②---|
口②口口 |③---|
①口口口 |④---|
42
口口④① |①---|
口④③② |②---|
口口④① |③---|
口口③② |④---|
43
①④口口 |①---|
②③④口 |②---|
①④口口 |③---|
②③口口 |④---|
44
①口口口 |①---|
口口口② |②---|
②口口口
口口口①

④口③口
口口口口
口口口口 |③---|
口③口④ |④---|
45
口口口④ |①---|
口①①③ |②---|
口①①② |③---|
口口口口 |④---|
46
①④口口 |①---|
②③④口 |②---|
①④口口 |③---|
②③口口 |④---|
47
口口④① |①---|
口④③② |②---|
口口④① |③---|
口口③② |④---|
48
口口口① |①---|
②口口口 |②---|
口口口②
①口口口

口③口④
口口口口
口口口口 |③---|
④口③口 |④---|
49
口口口口 |①---|
口①①口 |----|
口①①口
口口口口

口口口口
口④④口
口③③口 |②-③-|
口②②口 |④---|
50
②口口口 |①-②-|
①口口③ |--③-|
③口口①
口口口②

口口口④
⑤口口口
口口口⑤ |----|
④口口口 |④-⑤-|
51
②口口④ |--①-|
③口口① |----|
①口口③ |②-③-|
④口口② |--④-|
52
口口口口 |①-②-|
口④口口 |③-④-|
口③②口 |----|
口口①口 |----|
53
口口口口 |----|
口口口口 |----|
口④③口 |①-②-|
口①②口 |③-④-|
54
口口②口 |①-②-|
①口口③ |--③-|
③口口①
口②口口

口口口④
⑤口口口
口口口⑤ |----|
④口口口 |④-⑤-|
55
②口口④ |--①-|
③口口① |----|
①口口③ |②-③-|
④口口② |--④-|
56
口口口口 |①-②-|
⑤④口⑥ |③-④-|
⑥③②⑤ |⑤---|
口口①口 |⑥---|
57
口口②① |①---|
口④③口 |②---|
口③④口 |③---|
①②口口 |④---|


不确定度: 0

最終更新:2012年11月14日 15:54