MIND SHIFT
WORLD ORDER

EXTREME

Level: 7
BPM: 130
Notes: 555

1
口口口口 |----|
口口口口 |----|
口口口口 |----|
口口口口 |----|
2
口口口口 |①---|
口③③口 |②---|
口②②口 |③---|
④①①④ |④---|
3
①口口① |①---|
②口口② |②---|
口口口口
口口口口

④口口④
口口口口
③口口③ |③---|
口口口口 |④---|
4
口口口口 |①---|
口③③口 |②---|
口②②口 |③---|
④①①④ |④---|
5
口口口③ |①---|
口口②口 |②---|
口①①口 |③---|
口口口口 |----|
6
口口口口 |①---|
口③③口 |②---|
口②②口 |③---|
④①①④ |④---|
7
①④④① |①---|
②口口② |②---|
③口口③ |③---|
口口口口 |④---|
8
口口口口 |①---|
口口口口 |②---|
口②②口
口①①口

口口口口
口③③口
口口口口 |③---|
口④④口 |④---|
9
①口口① |①---|
②口②② |②---|
③③口③ |③---|
④口④④ |④---|
10
①④①① |①---|
①口②口 |②---|
③②④口 |③---|
口口③③ |④---|
11
口口口口 |①---|
口口①① |②---|
口①口②
口②口口

④口口口
口③④口
口口口口 |③---|
口口③③ |④---|
12
口口①① |①---|
③④口② |②---|
①②③③ |③---|
口口④口 |④---|
13
口口口口 |①---|
④③①① |②---|
②①②④ |③---|
口口③③ |④---|
14
③④①① |①---|
口口②口 |②---|
①②③③ |③---|
①口④口 |④---|
15
口口口口 |①---|
②③①① |②---|
口①②④ |③---|
④口③③ |④---|
16
①④①① |①---|
口口口② |②---|
③②③③ |③---|
口口④口 |④---|
17
⑤⑤口③ |①---|
①口①① |②-③-|
④④口② |④---|
口口口口 |⑤---|
18
口口口① |①②-③|
口口口① |--④-|
口口口口
②③口④

⑤口口口
⑤口口口
⑦口⑥口 |⑤⑥--|
口⑧口口 |⑦--⑧|
19
口④①口 |①-②-|
口④①口 |-③--|
口口③④ |④--⑤|
口⑤⑥② |--⑥-|
20
⑤口口① |①②-③|
⑤口口① |--④-|
③⑧②⑦ |⑤⑥--|
④口⑥口 |⑦--⑧|
21
口口①口 |①-②-|
口口①口 |-③--|
口口口口
②口③口

口④口口
口④口口
口⑤口④ |④--⑤|
⑥口口口 |--⑥-|
22
口⑤②口 |①②-③|
③口口口 |-④⑤-|
口④①口
口口①口

⑨口⑪⑦
口口口口
⑧口⑩⑥ |⑥⑦-⑧|
口口口⑥ |⑨-⑩⑪|
23
⑦③⑨⑤ |①②③-|
口⑩⑪口 |④⑤-⑥|
⑥②⑧④ |⑦-⑧⑨|
①①口口 |-⑩⑪-|
24
⑤口口② |①②-③|
口口口口 |-④⑤-|
④口口①
口③口①

口⑨⑦口
口口口⑪
口⑧⑥口 |⑥⑦-⑧|
口口⑥⑩ |⑨-⑩⑪|
25
③口⑤口 |①②③-|
口口口口 |④⑤-⑥|
②⑥④口
①①口口

口⑦口⑨
⑪⑦口口
口口口⑧ |⑦-⑧⑨|
⑩口口口 |-⑩⑪-|
26
①口④④ |①---|
口④①① |②-③-|
口口③③ |----|
口②②② |④---|
27
口⑤③③ |①---|
①口口口 |②-③-|
②④②① |④---|
口口②① |⑤---|
28
①口③口 |①---|
口⑤③⑤ |②-③-|
②④⑤① |④---|
口口口① |⑤---|
29
口口口口 |①---|
①④①口 |②---|
口口口① |③---|
②③口口 |④---|
30
口口口口 |①---|
①⑤①① |②-③-|
口口口口 |④---|
②④③③ |⑤---|
31
口⑤①① |①---|
①口口口 |②-③-|
②④③③ |④---|
口口口口 |⑤---|
32
①口⑤① |①---|
口⑤②③ |②-③-|
②④⑤① |④---|
口口②③ |⑤---|
33
口④口口 |①---|
①③①① |②---|
口②口口 |③---|
口口口口 |④---|
34
⑤⑤口口 |①---|
②②④② |②-③-|
③③口口 |④---|
①①⑤① |⑤---|
35
③③④② |①---|
口口口口 |②-③-|
①②⑤口 |④---|
①②口① |⑤---|
36
口③口口 |①---|
⑤③④② |②-③-|
①⑤⑤① |④---|
①②②口 |⑤---|
37
口口口口 |①---|
口①口④ |②---|
①口③① |③---|
口口口② |④---|
38
口口②① |①---|
①①口口 |②-③-|
口口⑤④ |④---|
③③口口 |⑤---|
39
①①口口 |①---|
⑤口①② |②-③-|
③③口口 |④---|
⑤口⑤④ |⑤---|
40
口口口口 |①---|
口①口口 |②-③-|
③口①②
口①口口

口④口⑤
口口④口
口④口口 |④---|
⑤⑤口口 |⑤---|
41
口⑤⑤③ |①---|
①①④① |②-③-|
口⑤⑤② |④---|
口口口口 |⑤---|
42
①口口口 |①---|
②口口口 |②---|
①口口②
②口口①

口④口口
口③口③
口④口口 |③---|
口③口④ |④---|
43
口口①口 |①---|
口口②口 |②---|
②口①口
①口②口

口口口④
③口口③
口口口④ |③---|
④口口③ |④---|
44
口①①口 |①---|
口②口② |②---|
②口②口
口①①口

④④口口
③口③口
口③口③ |③---|
口口④④ |④---|
45
口口口① |①---|
口口口口 |②---|
口口口②
①口口口

口口口④
口口口③
口口口口 |③---|
口口口口 |④---|
46
口①口口 |①---|
口②口口 |②---|
口①②口
口②①口

④口口口
③口③口
④口口口 |③---|
③口④口 |④---|
47
口口口① |①---|
口口口② |②---|
口②口①
口①口②

口口④口
口③③口
口口④口 |③---|
口④③口 |④---|
48
口口口① |①---|
口口②② |②---|
②②口口
①口口口

口③④④
③口口口
口口口③ |③---|
④④③口 |④---|
49
①口口口 |①---|
口①口口 |----|
口口①口
口口口①

口口口④
口③②口
口②③口 |②-③-|
④口口口 |④---|
50
②口口口 |①-②-|
①口口③ |--③-|
③口口①
口口口②

口口口④
⑤口口口
口口口⑤ |----|
④口口口 |④-⑤-|
51
②口口④ |--①-|
③口口① |----|
①口口③ |②-③-|
④口口② |--④-|
52
口④③口 |①-②-|
口②①口 |③-④-|
口①②口 |----|
口③④口 |----|
53
口口①口 |----|
口②口① |----|
口②口口 |①-②-|
④口③③ |③-④-|
54
口口②口 |①-②-|
①口口③ |--③-|
③口口①
口②口口

口口口④
⑤口口口
口口口⑤ |----|
④口口口 |④-⑤-|
55
②口口④ |--①-|
③口口① |----|
①口口③ |②-③-|
④口口② |--④-|
56
②④③口 |①-②-|
③②①① |③-④-|
①①②③
口③④②

口口口⑤
口⑥口口
⑥口口口 |⑤---|
⑤口口口 |⑥---|
57
口③②口 |①---|
口⑤④② |②-③-|
口②①口 |④---|
口⑤④① |⑤---|


不确定度: 0

最終更新:2012年11月14日 15:53