LISTEN TO THE STEREO!!
GOING UNDER GROUND

BASIC

Level: 3
BPM: 182
Notes: 212

全程BPM在182附近飄忽不定
1
口口口口 |----|
口口口口 |----|
口口口口 |----|
口口口口 |----|
2
口口口口 |①---|
口口口口 |----|
口口口口 |----|
口①①口 |----|
3
口口口口 |①---|
口口口口 |----|
口①①口 |----|
口口口口 |----|
4
口口口口 |①---|
口口口② |----|
口口口① |②---|
口口口口 |----|
5
②③口① |①---|
口口口口 |----|
口口口口 |②---|
口口口口 |③---|
6
口口①口 |①---|
口口口口 |----|
口口②口 |----|
口口口口 |②---|
7
口口口口 |①---|
④③②① |②---|
口口口口 |③---|
口口口口 |④---|
8
口口口口 |①---|
口口口口 |----|
口①①口 |----|
口口口口 |----|
9
口口口口 |----|
口口口口 |----|
口口口口 |----|
口口口口 |----|
10
口口口口 |①---|
口口口口 |----|
口口口口 |----|
口①①口 |----|
11
口口口口 |①---|
口口口口 |----|
口①①口 |----|
口口口口 |----|
12
口口口口 |①---|
②口口口 |----|
①口口口 |②---|
口口口口 |----|
13
①口口口 |①---|
口②②口 |----|
口口口口 |②---|
口口口口 |----|
14
口口口口 |①---|
口口口口 |----|
口①①口 |----|
口口口口 |----|
15
①口口① |①---|
③②②③ |----|
口口口口 |②---|
口口口口 |③---|
16
口口口口 |①---|
口②②口 |----|
口口口口 |----|
口①①口 |②---|
17
口口口口 |----|
口口口口 |----|
口口口口 |----|
口口口口 |----|
18
口口口口 |①---|
口口口口 |----|
②口口口 |②---|
口①①口 |----|
19
口③口口 |①---|
口②口口 |②---|
口①口口 |③---|
口口口口 |----|
20
口口口口 |①---|
口口口② |----|
口口①口 |②---|
口口口口 |----|
21
②③口① |①---|
口口口口 |----|
口口口口 |②---|
口口口口 |③---|
22
口口①口 |①---|
口口口口 |----|
口口②口 |----|
口口口口 |②---|
23
口口口口 |①---|
④③②① |②---|
口口口口 |③---|
口口口口 |④---|
24
口口口口 |①---|
口口口口 |----|
口①①口 |----|
口口口口 |----|
25
口口口口 |----|
口口口口 |----|
口口口口 |----|
口口口口 |----|
26
口口口口 |①---|
口口口口 |----|
口口口② |②---|
口①①口 |----|
27
口口③口 |①---|
口口②口 |②---|
口口①口 |③---|
口口口口 |----|
28
口口口口 |①---|
②口口口 |----|
口①口口 |②---|
口口口口 |----|
29
①口口口 |①---|
口②②口 |----|
口口口口 |②---|
口口口口 |----|
30
口口口口 |①---|
口口口口 |----|
口①①口 |----|
口口口口 |----|
31
①口口① |①---|
③②②③ |----|
口口口口 |②---|
口口口口 |③---|
32
口口口口 |①---|
口口口口 |----|
①③口口 |②---|
口②口口 |③---|
33
口口口口 |①---|
口口口口 |②---|
口口①② |----|
口口口口 |----|
34
①③口口 |①---|
口②口口 |----|
口口口口 |②---|
口口口口 |③---|
35
口口口口 |①---|
口口①② |②---|
口口口口 |----|
口口口口 |----|
36
口口口口 |①---|
口口口口 |----|
①口③口 |②---|
口②口口 |③---|
37
口口口④ |①---|
口②③口 |②---|
口①口口 |③---|
口口口口 |④---|
38
口口口口 |----|
口口口口 |----|
口口口口 |----|
口口口口 |----|
39
口口口口 |----|
口口口口 |----|
口口口口 |----|
口口口口 |----|
40
口口口口 |①---|
口口口口 |----|
口③口① |②---|
口口②口 |③---|
41
④口口口 |①---|
口③②口 |②---|
口口①口 |③---|
口口口口 |④---|
42
口口口口 |----|
口口口口 |----|
口口口口 |----|
口口口口 |----|
43
口口口口 |----|
口口口口 |----|
口口口口 |----|
口口口口 |----|
44
口口口口 |①---|
口口口口 |----|
①口③口 |②---|
口②口口 |③---|
45
口口口④ |①---|
口②③口 |②---|
口①口口 |③---|
口口口口 |④---|
46
口口口口 |----|
口口口口 |----|
口口口口 |----|
口口口口 |----|
47
口口口口 |----|
口口口口 |----|
口口口口 |----|
口口口口 |----|
48
口口口口 |①---|
口口口口 |----|
口③口① |②---|
口口②口 |③---|
49
④口口口 |①---|
口③②口 |②---|
口口①口 |③---|
口口口口 |④---|
50
口口口口 |----|
口口口口 |----|
口口口口 |----|
口口口口 |----|
51
口口口口 |----|
口口口口 |----|
口口口口 |----|
口口口口 |----|
52
口口口口 |①---|
口口口口 |----|
口口口口 |----|
口①①口 |----|
53
口口口口 |①---|
口口口口 |----|
①口口② |②---|
口口口口 |----|
54
口口口口 |①---|
口口口口 |----|
口①①口 |----|
口口口口 |----|
55
口口口口 |①---|
①口口② |----|
口口口口 |②---|
口口口口 |----|
56
口口口口 |①---|
口①①口 |----|
口口口口 |----|
口口口口 |----|
57
①口口② |①---|
口口口口 |----|
口口口口 |②---|
口口口口 |----|
58
口①①口 |①---|
口口口口 |----|
口口口口 |----|
口口口口 |----|
59
①口口① |①---|
②②②② |----|
口口口口 |②---|
口口口口 |----|
60
口口口口 |①---|
口口口口 |----|
②口口口 |②---|
口①①口 |----|
61
口③口口 |①---|
口②口口 |②---|
口①口口 |③---|
口口口口 |----|
62
口口口口 |①---|
口口口② |----|
口口①口 |②---|
口口口口 |----|
63
②③口① |①---|
口口口口 |----|
口口口口 |②---|
口口口口 |③---|
64
口口①口 |①---|
口口口口 |----|
口口②口 |----|
口口口口 |②---|
65
口口口口 |①---|
④③②① |②---|
口口口口 |③---|
口口口口 |④---|
66
口口口口 |①---|
口口口口 |----|
口①①口 |----|
口口口口 |----|
67
口口口口 |----|
口口口口 |----|
口口口口 |----|
口口口口 |----|
68
口口口口 |①---|
口口口口 |----|
口口口② |②---|
口①①口 |----|
69
口口③口 |①---|
口口②口 |②---|
口口①口 |③---|
口口口口 |----|
70
口口口口 |①---|
②口口口 |----|
口①口口 |②---|
口口口口 |----|
71
①口口口 |①---|
口②②口 |----|
口口口口 |②---|
口口口口 |----|
72
口口口口 |①---|
口口口口 |----|
口①①口 |----|
口口口口 |----|
73
①口口① |①---|
③②②③ |----|
口口口口 |②---|
口口口口 |③---|
74
口口口口 |①---|
口口口口 |----|
②口口口 |②---|
口①①口 |----|
75
口③口口 |①---|
口②口口 |②---|
口①口口 |③---|
口口口口 |----|
76
口口口口 |①---|
口口口② |----|
口口①口 |②---|
口口口口 |----|
77
②③口① |①---|
口口口口 |----|
口口口口 |②---|
口口口口 |③---|
78
口口①口 |①---|
口口口口 |----|
口口②口 |----|
口口口口 |②---|
79
口口口口 |①---|
④③②① |②---|
口口口口 |③---|
口口口口 |④---|
80
口口口口 |①---|
口②②口 |----|
口口口口 |----|
口①①口 |②---|
81
口口口口 |----|
口口口口 |----|
口口口口 |----|
口口口口 |----|
82
口口口口 |①---|
口口口口 |----|
口口口② |②---|
①口口① |----|
83
口口③口 |①---|
口口②口 |②---|
口口①口 |③---|
口口口口 |----|
84
口口口口 |①---|
②口口口 |----|
口①口口 |②---|
口口口口 |----|
85
①口口口 |①---|
口②②口 |----|
口口口口 |②---|
口口口口 |----|
86
口口口口 |①---|
口口口口 |----|
口①①口 |----|
口口口口 |----|
87
①口口① |①---|
③②②③ |----|
口口口口 |②---|
口口口口 |③---|


不确定度: 0

最終更新:2012年11月14日 15:50