LISTEN TO THE STEREO!!
GOING UNDER GROUND

ADVANCED

Level: 6
BPM: 182
Notes: 452

全程BPM在182附近飄忽不定
1
口口口口 |----|
口口口口 |----|
口口口口 |----|
口口口口 |----|
2
口⑤⑤口 |①-②-|
②口口④ |--③-|
口口口口 |--④-|
口③①口 |--⑤-|
3
口口口口 |----|
口①口口 |①-②-|
④口②④ |--③-|
口③口口 |--④-|
4
④口口④ |----|
②③口② |①-②-|
口口①口 |----|
口口口口 |③-④-|
5
口口①口 |----|
口口口口 |----|
口口②口 |①---|
口③口③ |②-③-|
6
口口口口 |----|
口口口口 |----|
口②口口 |----|
口口①口 |①-②-|
7
③口口③ |①-②-|
口②④口 |--③-|
⑤口①⑤ |--④-|
口口口口 |--⑤-|
8
口口口口 |----|
口口口口 |--①-|
口①口口 |②---|
口口②口 |----|
9
口口口口 |----|
口口口口 |----|
口口口口 |----|
口口口口 |----|
10
口⑤⑤口 |①-②-|
②口口④ |--③-|
口口口口 |--④-|
口③①口 |--⑤-|
11
口口口口 |----|
口①口口 |①-②-|
④口②④ |--③-|
口③口口 |--④-|
12
④口口④ |----|
②③口② |①-②-|
口口①口 |----|
口口口口 |③-④-|
13
口口①口 |----|
口口口口 |----|
口口②口 |①---|
口③口③ |②-③-|
14
口口口口 |----|
口口口口 |----|
口口口口 |----|
口口口口 |----|
15
⑤⑤⑤⑤ |①---|
③②③② |②-③-|
口口口口 |--④-|
①④①④ |⑤---|
16
口口口口 |①-②-|
⑥②⑥② |--③-|
口④③④ |④---|
口⑤①口 |⑤-⑥-|
17
②口②口 |--①-|
口①口口 |②---|
口口口口 |----|
口口口口 |----|
18
口⑤⑤口 |①-②-|
②口口④ |--③-|
口口口口 |--④-|
①③①口 |--⑤-|
19
口口口口 |----|
口①口口 |①-②-|
④口②④ |--③-|
口③口口 |--④-|
20
④口口④ |----|
②③口② |①-②-|
口口①口 |----|
口口口口 |③-④-|
21
口口①口 |----|
口口口口 |----|
口口②口 |①---|
口③口③ |②-③-|
22
口口口口 |----|
口口口口 |----|
口②口口 |----|
口口①口 |①-②-|
23
③口口③ |①-②-|
口②④口 |--③-|
⑤口①⑤ |--④-|
口口口口 |--⑤-|
24
口口口口 |----|
口口口口 |--①-|
口①①口 |②---|
口②②口 |----|
25
口口口口 |----|
口口口口 |----|
口口口口 |----|
口口口口 |----|
26
口⑤⑤口 |①-②-|
②口口④ |--③-|
口口口口 |--④-|
①③①口 |--⑤-|
27
口口口口 |----|
口①口口 |①-②-|
④口②④ |--③-|
口③口口 |--④-|
28
④口口④ |----|
②③口② |①-②-|
口口①口 |----|
口口口口 |③-④-|
29
口口①口 |----|
口口口口 |----|
口口②口 |①---|
口③口③ |②-③-|
30
口口口口 |----|
口口口口 |----|
口口口口 |----|
口口①口 |--①-|
31
④⑤⑤④ |①-②-|
③②③② |--③-|
口口口口 |--④-|
①口口口 |⑤---|
32
⑤口口⑤ |①-②-|
口口口口 |③-④-|
口④③口 |⑤---|
②⑦⑥① |⑥-⑦-|
33
口③③口 |①-②-|
④④④④ |③---|
②口口① |----|
口口口口 |④---|
34
⑤口口⑤ |①-②-|
口口口口 |③-④-|
口④③口 |⑤---|
②⑦⑥① |⑥-⑦-|
35
口③③口 |①-②-|
⑤⑦⑥④ |③---|
②口口① |④-⑤-|
口口口口 |⑥-⑦-|
36
②口口口 |①---|
口口口口 |②---|
口⑤口口 |③---|
④①①③ |④-⑤-|
37
口②口口 |①---|
③口①① |②-③-|
口口口④ |--④-|
口⑤⑤口 |⑤---|
38
⑤口口⑤ |①-②-|
口口口口 |③-④-|
口④③口 |⑤---|
②⑦⑥① |⑥-⑦-|
39
口③③口 |①-②-|
口口口口 |③---|
②口口① |----|
口口口口 |----|
40
①口口口 |----|
口口口口 |①---|
口④口口 |②---|
③口口② |③-④-|
41
口②口口 |①---|
③口①① |②-③-|
口口口④ |--④-|
口⑤⑤口 |⑤---|
42
⑤口口⑤ |①-②-|
口口口口 |③-④-|
口④③口 |⑤---|
②⑦⑥① |⑥-⑦-|
43
口③③口 |①-②-|
口口口口 |③---|
②口口① |----|
口口口口 |----|
44
①口口口 |----|
口口口口 |①-②-|
口⑤②口 |③---|
④口口③ |④-⑤-|
45
口③口口 |①-②-|
④口②① |③-④-|
口口口⑤ |--⑤-|
口⑥⑥口 |⑥---|
46
⑤口口⑤ |①-②-|
口口口口 |③-④-|
口④③口 |⑤---|
②⑦⑥① |⑥-⑦-|
47
口③③口 |①-②-|
口口口口 |③---|
②口口① |----|
口口口口 |----|
48
①口口口 |----|
口口口口 |①---|
口⑤③口 |②-③-|
④口口② |④-⑤-|
49
口②口口 |①---|
③口①① |②-③-|
口口口④ |--④-|
口⑤⑤口 |⑤---|
50
⑤口口⑤ |①-②-|
口口口口 |③-④-|
口④③口 |⑤---|
②⑦⑥① |⑥-⑦-|
51
口③③口 |①-②-|
口口口口 |③---|
②口口① |----|
口口口口 |----|
52
口口口口 |①---|
口①①口 |----|
口①①口 |----|
口②口口 |--②-|
53
③③口口 |①-②-|
口口口口 |--③-|
②口口口 |----|
①口口口 |----|
54
口口口口 |①---|
口①①口 |----|
口①①口 |----|
口口口口 |----|
55
口口③③ |①-②-|
口口口口 |--③-|
口口口口 |----|
口口①② |----|
56
口口口口 |①---|
口①①口 |----|
口①①口 |----|
口②口口 |--②-|
57
③③口口 |①-②-|
口口口口 |--③-|
②口口口 |----|
①口口口 |----|
58
口口口口 |①---|
口①①口 |----|
口①①口 |----|
口口口口 |----|
59
口口⑤⑤ |①-②-|
口口口④ |③-④-|
口口口③ |--⑤-|
口口①② |----|
60
口⑤⑤口 |①-②-|
②口口④ |--③-|
口口口口 |--④-|
①③①口 |--⑤-|
61
口口口口 |----|
口①口口 |①-②-|
④口②④ |--③-|
口③口口 |--④-|
62
④口口④ |----|
②③口② |①-②-|
口口①口 |----|
口口口口 |③-④-|
63
口口①口 |----|
口口口口 |----|
口口②口 |①---|
口③口③ |②-③-|
64
口口口口 |----|
口口口口 |----|
口②口口 |----|
口口①口 |①-②-|
65
③口口③ |①-②-|
口②④口 |--③-|
⑤口①⑤ |--④-|
口口口口 |--⑤-|
66
口口口口 |----|
口口口口 |--①-|
口①①口 |②---|
口②②口 |----|
67
口口口口 |----|
口口口口 |----|
口口口口 |----|
口口口口 |----|
68
口⑤⑤口 |①-②-|
②口口④ |--③-|
口口口口 |--④-|
①③①口 |--⑤-|
69
口口口口 |----|
口①口口 |①-②-|
④口②④ |--③-|
口③口口 |--④-|
70
④口口④ |----|
②③口② |①-②-|
口口①口 |----|
口口口口 |③-④-|
71
口口①口 |----|
口口口口 |----|
口口②口 |①---|
口③口③ |②-③-|
72
口口口口 |----|
口口口口 |----|
口口口口 |----|
口口口口 |----|
73
⑤⑤⑤⑤ |①---|
③②③② |②-③-|
口口口口 |--④-|
①④①④ |⑤---|
74
口⑤⑤口 |①-②-|
口②口④ |--③-|
口③口口 |--④-|
①口①口 |--⑤-|
75
口口口口 |----|
口①口口 |①-②-|
④口②④ |--③-|
口③口口 |--④-|
76
④口口④ |----|
②③口② |①-②-|
口口①口 |----|
口口口口 |③-④-|
77
口口①口 |----|
口口口口 |----|
口口②口 |①---|
口③口③ |②-③-|
78
口口口口 |----|
口口口口 |----|
口②口口 |----|
口口①口 |①-②-|
79
③口口③ |①-②-|
口②④口 |--③-|
⑤口①⑤ |--④-|
口口口口 |--⑤-|
80
口④口④ |①-②-|
⑥②⑥② |--③-|
口口③口 |④---|
口⑤①口 |⑤-⑥-|
81
②口②口 |--①-|
口口口口 |②---|
口①口口 |----|
口口口口 |----|
82
口⑤⑤口 |①-②-|
②口口④ |--③-|
口口口口 |--④-|
①③①口 |--⑤-|
83
口口口口 |----|
口①口口 |①-②-|
④口②④ |--③-|
口③口口 |--④-|
84
④口口④ |----|
②③口② |①-②-|
口口①口 |----|
口口口口 |③-④-|
85
口口①口 |----|
口口口口 |----|
口口②口 |①---|
口③口③ |②-③-|
86
口口口口 |----|
口口口口 |----|
口口口口 |----|
口口口口 |----|
87
④口口④ |①---|
③②③② |②-③-|
口⑤⑤口 |--④-|
①口①口 |⑤---|


不确定度: 0

最終更新:2012年11月14日 15:50