LISTEN TO THE STEREO!!
GOING UNDER GROUND

EXTREME

Level: 8
BPM: 182
Notes: 664

全程BPM在182附近飄忽不定
1
口口口口 |----|
口口口口 |----|
口口口口 |----|
口口口口 |----|
2
③③口口 |①-②-|
口⑤②口 |--③-|
⑥口④④ |--④-|
口①口口 |--⑤⑥|
3
口口③③ |①---|
口口口口 |②-③-|
口①口口
口②口口

④⑤口口
⑤口⑤口
口⑤口口 |--④-|
口口口口 |--⑤-|
4
口口口口 |----|
口①③口 |①-②-|
口③②③ |----|
口口③④ |③-④-|
5
①口①口 |----|
口口口口 |----|
②②口口 |①---|
③③口口 |②-③-|
6
口①口① |----|
口口口口 |----|
口口②口 |----|
口口口口 |①-②-|
7
口⑤口⑤ |①-②-|
口口④④ |--③-|
口口口③ |--④-|
②口②① |--⑤-|
8
口口口口 |----|
口①口④ |--①②|
②口⑤口 |③-④-|
口③口口 |⑤---|
9
口口⑤① |①-②-|
口⑥③口 |③---|
④②口口 |④-⑤-|
口口口口 |⑥---|
10
③③口口 |①-②-|
口⑤②口 |--③-|
⑥口④④ |--④-|
口①口口 |--⑤⑥|
11
口口③③ |①---|
口口口口 |②-③-|
口①口口
口②口口

④⑤口口
⑤口⑤口
口⑤口口 |--④-|
口口口口 |--⑤-|
12
口口口口 |----|
口①③口 |①-②-|
口③②③ |----|
口口③④ |③-④-|
13
①口①口 |----|
口口口口 |----|
②②口口 |①---|
③③口口 |②-③-|
14
口口口口 |----|
口口口口 |----|
口口口口 |----|
口口口口 |----|
15
口④②口 |①---|
⑤①①⑤ |②-③-|
⑤③③⑤ |--④-|
口②④口 |⑤---|
16
④④②② |①-②-|
⑥口⑥⑥ |--③-|
口口口口 |④---|
①⑤口③ |⑤-⑥-|
17
口口⑤口 |--①-|
⑥④口口 |②---|
②②③② |③-④-|
口口①口 |⑤-⑥-|
18
③③口口 |①-②-|
口⑤②口 |--③-|
⑥口④④ |--④-|
口①口① |--⑤⑥|
19
口口③③ |①---|
口口口口 |②-③-|
口①口口
口②口口

④⑤口口
⑤口⑤口
口⑤口口 |--④-|
口口口口 |--⑤-|
20
口口口口 |----|
口①③口 |①-②-|
口③②③ |----|
口口③④ |③-④-|
21
①口①口 |----|
口口口口 |----|
②②口口 |①---|
③③口口 |②-③-|
22
口⑥④⑥ |①---|
口口②③ |②-③-|
口⑤⑦口 |④-⑤-|
口口口① |⑥-⑦-|
23
口⑤口⑤ |①-②-|
口口④④ |--③-|
口口口③ |--④-|
②口②① |--⑤-|
24
口口口口 |----|
口①口④ |--①②|
②口⑤口 |③-④-|
口③口口 |⑤---|
25
口口⑤① |①-②-|
口⑥③口 |③---|
④②口口 |④-⑤-|
口口口口 |⑥---|
26
③③口口 |①-②-|
口⑤②口 |--③-|
⑥口④④ |--④-|
口①口① |--⑤⑥|
27
口口③③ |①---|
口口口口 |②-③-|
口①口口
口②口口

④⑤口口
⑤口⑤口
口⑤口口 |--④-|
口口口口 |--⑤-|
28
口口口口 |----|
口①③口 |①-②-|
口③②③ |----|
口口③④ |③-④-|
29
①口①口 |----|
口口口口 |----|
②②口口 |①---|
③③口口 |②-③-|
30
口④口③ |①---|
⑦口口⑦ |②-③-|
⑤口②口 |④-⑤-|
口口⑥① |⑥-⑦-|
31
口④②口 |①-②-|
⑤①①⑤ |--③-|
⑤③③⑤ |--④-|
口②④口 |⑤---|
32
⑤口③⑤ |①-②-|
口④口口 |③-④-|
口口⑥口 |⑤---|
②⑦口① |⑥-⑦-|
33
口③③口 |①-②-|
②口口① |③---|
⑤⑥⑥④ |④-⑤-|
口口口口 |⑥---|
34
⑤口③⑤ |①-②-|
口④口口 |③-④-|
口口⑥口 |⑤---|
②⑦口① |⑥-⑦-|
35
口③③口 |①-②-|
⑤⑦⑥④ |③---|
②口口① |④-⑤-|
口口口口 |⑥-⑦-|
36
②口口口 |①---|
口口口③ |②---|
口③口口 |③---|
⑤①①④ |④-⑤-|
37
③口口② |①---|
①口③口 |②-③-|
口④①口 |--④-|
⑤口口⑤ |⑤---|
38
⑤口③⑤ |①-②-|
口④口口 |③-④-|
②口⑥① |⑤---|
口⑦口口 |⑥-⑦-|
39
口③③口 |①-②-|
②⑥⑥① |③---|
⑤口口④ |④-⑤-|
口口口口 |⑥---|
40
②口口口 |①---|
口口口③ |②---|
口③口口 |③---|
⑤①①④ |④-⑤-|
41
③口口② |①---|
①口③口 |②-③-|
口④①口 |--④-|
⑤口口⑤ |⑤---|
42
⑤口③⑤ |①-②-|
口④口口 |③-④-|
②口⑥① |⑤---|
口⑦口口 |⑥-⑦-|
43
口③③口 |①-②-|
②④④① |③---|
口口口口 |----|
口口口口 |④---|
44
②口③口 |①---|
口口口④ |②-③-|
口④口口 |④---|
⑥①①⑤ |⑤-⑥-|
45
④②口③ |①-②-|
①口④口 |③-④-|
口⑤①口 |--⑤-|
⑥口口⑥ |⑥---|
46
⑤口③⑤ |①-②-|
口④口口 |③-④-|
②口⑥① |⑤---|
口⑦口口 |⑥-⑦-|
47
口③③口 |①-②-|
②⑥⑥① |③---|
⑤口口④ |④-⑤-|
口口口口 |⑥---|
48
②口④口 |①---|
口口口③ |②---|
口③口口 |③-④-|
⑥①①⑤ |⑤-⑥-|
49
③口口② |①---|
①口③口 |②-③-|
口④①口 |--④-|
⑤口口⑤ |⑤---|
50
⑤口③⑤ |①-②-|
口④口口 |③-④-|
②口⑥① |⑤---|
口⑦口口 |⑥-⑦-|
51
口③③口 |①-②-|
②口口① |③---|
口⑥⑥口 |④-⑤-|
⑤口口④ |⑥---|
52
口口③口 |①-②-|
口①②① |③-④-|
口⑦⑥⑦ |⑤-⑥-|
⑧⑤④⑤ |⑦-⑧-|
53
③③口口 |①-②-|
②②口口 |--③-|
①口口口 |----|
口口口口 |----|
54
口口③口 |①-②-|
口①②① |③-④-|
口⑦⑥⑦ |⑤-⑥-|
口⑤④⑤ |⑦---|
55
③③口口 |①-②-|
②②口口 |--③-|
口口口口 |----|
①口口口 |----|
56
口口③口 |①-②-|
口①②① |③-④-|
口⑦⑥⑦ |⑤-⑥-|
⑧⑤④⑤ |⑦-⑧-|
57
③③口口 |①-②-|
②②口口 |--③-|
①口口口 |----|
口口口口 |----|
58
口口③口 |①-②-|
口①②① |③-④-|
口⑦⑥⑦ |⑤-⑥-|
口⑤④⑤ |⑦---|
59
④④⑤⑤ |①-②-|
③口口口 |③-④-|
②口口口 |--⑤-|
①口口口 |----|
60
③③口口 |①-②-|
口⑤②口 |--③-|
⑥口④④ |--④-|
口①口① |--⑤⑥|
61
口口③③ |①---|
口口口口 |②-③-|
口①口口
口②口口

④⑤口口
⑤口⑤口
口⑤口口 |--④-|
口口口口 |--⑤-|
62
口口口口 |----|
口①③口 |①-②-|
口③②③ |----|
口口③④ |③-④-|
63
①口①口 |----|
口口口口 |----|
②②口口 |①---|
③③口口 |②-③-|
64
口⑥④⑥ |①---|
口口②③ |②-③-|
口⑤⑦口 |④-⑤-|
口口口① |⑥-⑦-|
65
口⑤口⑤ |①-②-|
口口④④ |--③-|
口口口③ |--④-|
②口②① |--⑤-|
66
口口口口 |----|
口①口④ |--①②|
②口⑤口 |③-④-|
口③口口 |⑤---|
67
口口⑤① |①-②-|
口⑥③口 |③---|
④②口口 |④-⑤-|
口口口口 |⑥---|
68
③③口口 |①-②-|
口⑤②口 |--③-|
⑥口④④ |--④-|
口①口① |--⑤⑥|
69
口口③③ |①---|
口口口口 |②-③-|
口①口口
口②口口

④⑤口口
⑤口⑤口
口⑤口口 |--④-|
口口口口 |--⑤-|
70
口口口口 |----|
口①③口 |①-②-|
口③②③ |----|
口口③④ |③-④-|
71
①口①口 |----|
口口口口 |----|
②②口口 |①---|
③③口口 |②-③-|
72
口④口③ |①---|
⑦口口⑦ |②-③-|
⑤口②口 |④-⑤-|
口口⑥① |⑥-⑦-|
73
口④②口 |①---|
⑤①①⑤ |②-③-|
⑤③③⑤ |--④-|
口②④口 |⑤---|
74
③口口③ |①-②-|
口⑤②口 |--③-|
⑥口④④ |--④-|
①口口① |--⑤⑥|
75
口口③③ |①---|
口口口口 |②-③-|
口①口口
口②口口

④⑤口口
⑤口⑤口
口⑤口口 |--④-|
口口口口 |--⑤-|
76
口口口口 |----|
口①③口 |①-②-|
口③②③ |----|
口口③④ |③-④-|
77
①口①口 |----|
口口口口 |----|
②②口口 |①---|
③③口口 |②-③-|
78
口⑥④⑥ |①---|
口口②③ |②-③-|
口⑤⑦口 |④-⑤-|
口口口① |⑥-⑦-|
79
口⑤口⑤ |①-②-|
口口④④ |--③-|
口口口③ |--④-|
②口②① |--⑤-|
80
口口③口 |①-②-|
口④口④ |--③-|
口⑤①口 |④---|
⑥②⑥② |⑤-⑥-|
81
口①⑥口 |--①-|
②⑤②口 |②---|
④口③口 |③-④-|
口口口口 |⑤-⑥-|
82
③③口口 |①-②-|
口⑤②口 |--③-|
⑥口④④ |--④-|
口①口① |--⑤⑥|
83
口口③③ |①---|
口口口口 |②-③-|
口①口口
口②口口

④⑤口口
⑤口⑤口
口⑤口口 |--④-|
口口口口 |--⑤-|
84
口口口口 |----|
口①③口 |①-②-|
口③②③ |----|
口口③④ |③-④-|
85
①口①口 |----|
口口口口 |----|
②②口口 |①---|
③③口口 |②-③-|
86
口③口口 |①---|
⑥口口⑥ |②---|
④口②口 |③-④-|
口口⑤① |⑤-⑥-|
87
口④②口 |①---|
⑤①①⑤ |②-③-|
⑤③③⑤ |--④-|
口②④口 |⑤---|


不确定度: 0

最終更新:2012年11月14日 15:49