君をのせて feat.sayurina
新井大樹

BASIC

Level: 2
BPM: 140
Notes: 125

1
口口口口 |----|
口口口口 |----|
口口口口 |----|
口口口口 |----|
2
口口口口 |①---|
口口口口 |----|
口口口① |----|
口口口口 |----|
3
口口口口 |①---|
口口口口 |----|
口口①口 |----|
口口口口 |----|
4
口口口口 |①---|
口口口口 |----|
口①口口 |----|
口口口口 |----|
5
口口口口 |①---|
口口口口 |----|
①口口口 |----|
口口口口 |----|
6
口口口口 |①---|
①口口口 |----|
口口口口 |----|
口口口口 |----|
7
口口口口 |①---|
口①口口 |----|
口口口口 |----|
口口口口 |----|
8
口口口口 |①---|
口口①口 |----|
口口口口 |----|
口口口口 |----|
9
口口口口 |①---|
口口口① |----|
口口口口 |----|
口口口口 |----|
10
口①①口 |①---|
口②②口 |----|
口口口口 |②---|
口口口口 |----|
11
口口口口 |①---|
口口口口 |----|
口①①口 |②---|
口②②口 |----|
12
口口口口 |①---|
口口口② |----|
口口口① |②---|
口口口口 |----|
13
口口口① |①---|
口口口口 |----|
口口口口 |----|
口口口口 |----|
14
口口①口 |①---|
口口②口 |----|
口口口口 |②---|
口口口口 |----|
15
口口口口 |①---|
口口口口 |----|
口口①口 |----|
口口口口 |----|
16
口口口口 |①---|
口②口口 |----|
口①口口 |②---|
口口口口 |----|
17
口①口口 |①---|
口口口口 |----|
口口口口 |----|
口口口口 |----|
18
①口口口 |①---|
②口口口 |----|
口口口口 |②---|
口口口口 |----|
19
口口口口 |①---|
口口口口 |----|
①口口口 |----|
口口口口 |----|
20
口口口口 |①---|
口口口口 |----|
口口口口 |②---|
口①②口 |----|
21
口口口口 |①---|
口口口口 |----|
口口口口 |----|
口口口① |----|
22
口口口口 |①---|
口口口口 |----|
口口②① |②---|
口口口口 |----|
23
口口口口 |①---|
口口口口 |----|
口①口口 |----|
口口口口 |----|
24
②口口口 |①---|
①口口口 |----|
口口口口 |②---|
口口口口 |----|
25
口①口口 |①---|
口②口口 |②---|
口③口口 |③---|
口口口口 |----|
26
口口口口 |①---|
口口①口 |----|
口口②口 |②---|
口口口口 |----|
27
口口口口 |①---|
口口口口 |----|
口口口口 |----|
口口①口 |----|
28
口口口口 |①---|
口口口口 |----|
口口口口 |----|
口①①口 |----|
29
口口口口 |①---|
口口口口 |----|
口①口口 |----|
口口口口 |----|
30
口口口口 |①---|
口①①口 |----|
口口口口 |----|
口口口口 |----|
31
口①口口 |①---|
口口口口 |----|
口口口口 |----|
口口口口 |----|
32
口口②① |①---|
口口口口 |----|
口口口口 |②---|
口口口口 |----|
33
②①口口 |①---|
口口口口 |----|
口口口口 |②---|
口口口口 |----|
34
口口口口 |①---|
口①②口 |②---|
口③④口 |③---|
口口口口 |④---|
35
口口口口 |①---|
口口口口 |----|
口口口口 |----|
口①①口 |----|
36
口口口口 |----|
口口口口 |----|
口①①口 |----|
口口口口 |①---|
37
②口口② |①---|
口①①口 |----|
口口口口 |②---|
口口口口 |----|
38
口口口口 |①---|
口①②口 |②---|
口口口口 |----|
口口口口 |----|
39
口①②口 |①---|
口③④口 |②---|
口口口口 |③---|
口口口口 |④---|
40
口口口口 |①---|
口口口口 |----|
口①口口
口口口口

口口口口
口口口口
口②②口 |----|
口口口口 |②---|
41
②口口② |①---|
口①①口 |----|
口口口口 |②---|
口口口口 |----|
42
口口口口 |①---|
口①①口 |②---|
口②②口 |----|
口口口口 |----|
43
口口口口 |①---|
口口口口 |②---|
口③④口 |③---|
口①②口 |④---|
44
口口口口 |①---|
口①口口 |----|
口口口口 |----|
口口口口 |----|
45
口口口口 |①---|
口口口② |----|
口口口① |②---|
口口口口 |----|
46
口口口① |①---|
口口口口 |----|
口口口口 |----|
口口口口 |----|
47
口②①口 |①---|
口口口口 |----|
口口口口 |②---|
口口口口 |----|
48
①口口口 |①---|
口口口口 |----|
口口口口 |----|
口口口口 |----|
49
口口口口 |①---|
①口口口 |----|
②口口口 |②---|
口口口口 |----|
50
口口口口 |①---|
口口口口 |----|
口口口口 |----|
①口口口 |----|
51
口口口口 |①---|
口口口口 |----|
口口口口 |②---|
口①②口 |----|
52
口口口口 |①---|
口口口口 |----|
口口口口 |----|
口口口① |----|
53
口口口口 |①---|
口口口② |----|
口口口① |②---|
口口口口 |----|
54
口口口① |①---|
口口口口 |----|
口口口口 |----|
口口口口 |----|
55
口②①口 |①---|
口口口口 |----|
口口口口 |②---|
口口口口 |----|
56
①口口口 |①---|
口口口口 |----|
口口口口 |----|
口口口口 |----|
57
口口口口 |①---|
口①口口 |----|
口②口口 |②---|
口口口口 |----|
58
口口口口 |①---|
口口①口 |②---|
口口②口 |③---|
口口③口 |----|
59
口口口口 |①---|
口①②口 |----|
口口口口 |②---|
口口口口 |----|
60
口口口口 |①---|
口口口口 |----|
口①①口 |----|
口口口口 |----|
61
口口①① |①---|
口口口口 |----|
口口口口 |----|
口口口口 |----|
62
口口口口 |①---|
口口①① |----|
口口口口 |----|
口口口口 |----|
63
口口口口 |①---|
口口口口 |----|
口口①① |----|
口口口口 |----|
64
口口口口 |----|
口口口口 |----|
口口口口 |----|
口口口口 |----|
65
①①口口 |①---|
口口口口 |----|
口口口口 |----|
口口口口 |----|
66
口口口口 |①---|
①①口口 |----|
口口口口 |----|
口口口口 |----|
67
口口口口 |①---|
口口口口 |----|
①①口口 |----|
口口口口 |----|


不确定度: 0

最終更新:2012年11月14日 15:49