君をのせて feat.sayurina
新井大樹

ADVANCED

Level: 6
BPM: 140
Notes: 429

1
口口口口 |----|
口口口口 |----|
口口口口 |----|
口口口口 |----|
2
①口②③ |①--②|
④口⑤⑥ |--③-|
口口口口 |④--⑤|
口口口口 |--⑥-|
3
口口口口 |①--②|
口口口口 |--③-|
①口②③ |④--⑤|
④口⑤⑥ |--⑥-|
4
①④口口 |①--②|
口口口口 |--③-|
②⑤口口 |④--⑤|
③⑥口口 |--⑥-|
5
口口①④ |①--②|
口口口口 |--③-|
口口②⑤ |④--⑤|
口口③⑥ |--⑥-|
6
①口②③ |①--②|
④口⑤⑥ |--③-|
口口口口 |④--⑤|
口口口口 |--⑥-|
7
口口口口 |①--②|
口口口口 |--③-|
①口②③ |④--⑤|
④口⑤⑥ |--⑥-|
8
①④口口 |①--②|
口口口口 |--③-|
②⑤口口 |④--⑤|
③⑥口口 |--⑥-|
9
口口①④ |①--②|
口口口口 |--③-|
口口②⑤ |④--⑤|
口口③⑥ |--⑥-|
10
⑤⑥口口 |①--②|
④①②③ |--③-|
③②①④ |④--⑤|
口口⑥⑤ |--⑥-|
11
口口①② |①--②|
口口口③ |--③-|
③口口口
②①口口

口口口口
④④口口
口口④④ |④---|
口⑤⑥口 |⑤-⑥-|
12
口口口④ |①---|
口口②③ |--②-|
口口口口 |③---|
口口口① |④---|
13
口②口口 |①---|
口口口口 |----|
①口口口 |----|
口①口口 |②---|
14
口口①口 |①---|
口口②③ |--②-|
口口口口 |③---|
口口口④ |④---|
15
口①口口 |①---|
①②③口 |----|
口口口口 |----|
口口口口 |②-③-|
16
④口口④ |①---|
口口口口 |--②-|
①口口② |③-④-|
口③③口 |----|
17
口口②口 |①---|
口③口口 |----|
口口④口 |--②-|
①口口① |③-④-|
18
口口口口 |①---|
口口④口 |--②-|
③口口④ |③---|
口①②口 |④---|
19
口口①口 |①---|
口口口① |----|
口口口口 |----|
②③口口 |②-③-|
20
口口口④ |①---|
口口②③ |--②-|
口口口口 |③---|
口口①口 |④---|
21
口②③口 |①---|
口口口口 |----|
①口口口 |----|
口①口口 |②-③-|
22
口口口① |①---|
口口②③ |--②-|
口口口口 |③---|
口口口④ |④---|
23
口①口② |①---|
①口口口 |----|
口口口口 |----|
口口口口 |--②-|
24
口口口口 |①---|
④口口④ |②-③-|
①③③口 |----|
口口②② |④---|
25
口①①口 |①--②|
口②②口 |--③-|
③口口③ |④---|
口④④口 |----|
26
口④①口 |①-②-|
④⑤②① |③-④-|
⑤⑥③② |⑤---|
⑥口口③ |⑥---|
27
口②③口 |①---|
口口口口 |----|
口口口① |----|
口口①口 |②-③-|
28
①口口① |①---|
口②③口 |--②-|
④口口④ |③---|
口口口口 |④---|
29
口口口口 |①---|
口口口口 |----|
口口口口
①①①①

口口口口
口口口口
口口口口 |----|
口②③口 |②-③-|
30
口口口口 |①---|
④④④④ |--②-|
②③③② |③---|
①口口① |④---|
31
①①①① |①---|
口口口口 |----|
口口口口 |----|
口口口口 |----|
32
⑦③口口 |①-②-|
口口口② |③---|
⑤①口④ |④-⑤-|
口口⑥口 |⑥-⑦-|
33
口口口口 |①---|
①口口口 |--②-|
口口②② |③---|
口口③③ |----|
34
①①①① |①---|
②②②② |②---|
③③③③ |③---|
④④④④ |④---|
35
口①①口 |①---|
①口口① |----|
口口口口 |----|
口口口口 |----|
36
口口口口 |①---|
口口口③ |②---|
①②②① |----|
②①①② |③---|
37
口①口口 |①---|
①②口口 |----|
②口口口 |②---|
③口口口 |--③-|
38
口口口③ |①-②-|
口口②口 |③---|
口①口口 |----|
④④口口 |--④-|
39
④口口④ |①---|
口口口口 |②-③-|
①①③③ |--④-|
口口②② |----|
40
口口口口 |①---|
①①①① |----|
口①①口
口口口口

口口口口
②口口口
口口口口 |----|
口口口口 |②---|
41
口口①口 |①---|
口口②① |----|
口口口② |②---|
口口口口 |----|
42
口④④口 |①-②-|
口③口口 |③---|
口口②口 |----|
口口口① |--④-|
43
③口口③ |①---|
①②②① |②-③-|
④口口④ |--④-|
口口口口 |----|
44
口口口口 |①---|
口口口口 |----|
口口口口
口①①口

②③口口
口口口口
口口口口 |----|
口口③② |②-③-|
45
口口①② |①---|
④口口③ |--②-|
③口口④ |③---|
②①口口 |④---|
46
①②③口 |①---|
口口口口 |----|
口口口口 |----|
口③②① |②-③-|
47
口口口① |①---|
③④口② |--②-|
②口④③ |③---|
①口口口 |④---|
48
口口口口 |①---|
口口①口 |----|
口①口口
口口口口

口口口口
②口③口
口口口口 |----|
口口口口 |②-③-|
49
口①④口 |①---|
口②口③ |--②-|
口①④口 |③--④|
口口口口 |----|
50
口②③口 |①---|
口④口口 |----|
口口口口 |--②-|
①①①① |③-④-|
51
口口口④ |①---|
口口①口 |--②-|
口②口口 |③---|
④口③口 |④---|
52
②③口口 |①---|
①口口口 |----|
口口口① |----|
口口③② |②-③-|
53
口口①② |①---|
④口口③ |--②-|
③口口④ |③---|
②①口口 |④---|
54
①②口口 |①---|
口口口口 |----|
口口口口 |----|
口口②① |②---|
55
口口①② |①---|
④口口③ |--②-|
③口口④ |③---|
②①口口 |④---|
56
口口口② |①---|
口①口口 |----|
口口①口 |----|
口口口口 |--②-|
57
口口口口 |①---|
④口口④ |②-③-|
①③③口 |----|
口口②② |④---|
58
②①①② |①---|
口口口口 |②-③-|
口③③口 |----|
口口口口 |----|
59
口④①口 |①-②-|
④⑤②① |③-④-|
⑤⑥③② |⑤---|
⑥口口③ |⑥---|
60
口口口口 |①---|
口口口口 |----|
口口口① |----|
口口①口 |----|
61
①①②③ |①--②|
④口⑤⑥ |--③-|
口口口口 |④--⑤|
口口口口 |--⑥-|
62
口口口口 |①--②|
口口口口 |--③-|
①①②③ |④--⑤|
④口⑤⑥ |--⑥-|
63
①④口口 |①--②|
①口口口 |--③-|
②⑤口口 |④--⑤|
③⑥口口 |--⑥-|
64
口口①④ |①--②|
口口口④ |--③-|
口口②⑤ |④--⑤|
口口③⑥ |--⑥-|
65
①①②③ |①--②|
④口⑤⑥ |--③-|
口口口口 |④--⑤|
口口口口 |--⑥-|
66
口口口口 |①--②|
口口口口 |--③-|
①①②③ |④--⑤|
④口⑤⑥ |--⑥-|
67
①④口口 |①--②|
①口口口 |--③-|
②⑤口口 |④--⑤|
③⑥口口 |--⑥-|
68
口口①④ |①--②|
口口口口 |--③-|
口口②⑤ |④--⑤|
口口③⑥ |--⑥-|
69
口口口口 |①---|
①①①① |----|
口①①口 |----|
口口口口 |----|


不确定度: 0

最終更新:2012年11月14日 15:49