君をのせて feat.sayurina
新井大樹

EXTREME

Level: 8
BPM: 140
Notes: 693

1
口口口口 |----|
口口口口 |----|
口口口口 |----|
口口口口 |----|
2
⑤⑤⑩⑩ |①②③④|
⑥①②⑦ |--⑤-|
⑧③④⑨ |⑥⑦⑧⑨|
口口口口 |--⑩-|
3
⑤⑤⑩⑩ |①②③④|
⑥①②⑦ |--⑤-|
⑧③④⑨ |⑥⑦⑧⑨|
口口口口 |--⑩-|
4
⑤⑤⑩⑩ |①②③④|
⑥①②⑦ |--⑤-|
⑧③④⑨ |⑥⑦⑧⑨|
口口口口 |--⑩-|
5
⑤⑤⑩⑩ |①②③④|
⑥①②⑦ |--⑤-|
⑧③④⑨ |⑥⑦⑧⑨|
口口口口 |--⑩-|
6
⑤⑤⑩⑩ |①②③④|
⑥①②⑦ |--⑤-|
⑧③④⑨ |⑥⑦⑧⑨|
口口①① |--⑩-|
7
⑤⑤⑩⑩ |①②③④|
⑥①②⑦ |--⑤-|
⑧③④⑨ |⑥⑦⑧⑨|
口口口口 |--⑩-|
8
⑤⑤⑩⑩ |①②③④|
⑥①②⑦ |--⑤-|
⑧③④⑨ |⑥⑦⑧⑨|
口口口口 |--⑩-|
9
⑤⑤⑩⑩ |①②③④|
⑥①②⑦ |--⑤-|
⑧③④⑨ |⑥⑦⑧⑨|
口口口口 |--⑩-|
10
①口口口 |①--②|
口③②口 |--③-|
口②③口
口口①口

口⑤口口
④口⑥④
口⑥口口 |④--⑤|
口口口⑤ |--⑥-|
11
口口②① |①--②|
口③口口 |--③-|
②口③口
①口口口

口口口口
口口④口
口④口口 |④---|
⑤⑥口口 |⑤-⑥-|
12
口①口口 |①---|
①口口④ |--②-|
口口口③ |③---|
口口①② |④---|
13
口口口⑤ |①--②|
口口③④ |--③-|
口②口口 |④---|
①①口口 |⑤---|
14
③②①口 |①---|
④口口口 |--②-|
①口口口 |③---|
口①口口 |④---|
15
口口①口 |①--②|
口口口① |--③-|
口⑥⑤③ |④---|
口②口④ |⑤-⑥-|
16
口口①口 |①---|
口口口① |--②-|
①口口口
口②口口

口口口口
口口口④
口口口口 |③-④-|
③口口口 |----|
17
口⑤口④ |①--②|
口⑥③口 |--③-|
②⑦口口 |④-⑤-|
口口①① |⑥-⑦-|
18
口口口口 |①---|
口口①① |--②-|
口口口口
口①口②

口口口口
口④④口
口口③口 |③---|
口口口口 |④---|
19
①口口⑤ |①②③④|
②口口⑥ |⑤⑥⑦⑧|
③口口⑦
④口口⑧

⑬⑨⑩口
⑭⑪⑫口
口口口口 |⑨⑩⑪⑫|
口口口口 |⑬-⑭-|
20
口口口口 |①---|
口口口① |--②-|
①口①口
口口口②

口口口口
口口口④
口口口③ |③---|
口口口口 |④---|
21
⑥口口⑤ |①--②|
口口③④ |--③-|
口②口口 |④---|
①①口口 |⑤-⑥-|
22
③②①口 |①---|
④口口口 |--②-|
①口口口 |③---|
口①口口 |④---|
23
口口①⑥ |①--②|
④口口① |--③-|
口⑤②口 |④--⑤|
口③口口 |--⑥-|
24
口口口口 |①---|
④口口④ |②-③-|
①③③口 |----|
口口②② |④---|
25
口①①口 |①--②|
口②②口 |--③-|
③⑥口③ |④--⑤|
⑤④④口 |--⑥-|
26
口④①口 |①-②-|
④⑤②① |③-④-|
⑤⑥③② |⑤---|
⑥口口③ |⑥---|
27
②⑦⑩③ |①--②|
⑪⑨⑧④ |--③-|
口⑤⑥口 |④⑤⑥⑦|
口①口① |⑧⑨⑩⑪|
28
④③③④ |①---|
口口口口 |--②-|
口②②① |③---|
口口口口 |④---|
29
⑤⑥口口 |①-②③|
①①①① |④-⑤⑥|
口④③②
口口口口

口口⑦口
口⑪⑫口
口口口口 |⑦⑧⑨⑩|
口⑩⑨⑧ |⑪-⑫-|
30
口③口口 |①---|
②口口口 |--②-|
口①口口 |③---|
④④④④ |④---|
31
口④③② |①-②③|
⑤⑥⑦口 |④-⑤⑥|
①①①① |⑦⑧⑨⑩|
口⑩⑨⑧ |----|
32
口③口口 |①-②-|
口口口② |③---|
口①口口
口口口口

口口口⑦
④④口口
⑤⑤口口 |④-⑤-|
⑥⑥口口 |⑥-⑦-|
33
口口口口 |①---|
口口口① |--②-|
②口口② |③---|
③口口③ |----|
34
④口口④ |①---|
③口口③ |②---|
②②②② |③---|
口①①口 |④---|
35
口①①口 |①---|
⑨⑧⑦⑥ |②③④⑤|
⑩⑪⑫⑬ |⑥⑦⑧⑨|
②③④⑤ |⑩⑪⑫⑬|
36
①②③① |①---|
口④⑤口 |②③④⑤|
口口口口
口口口口

⑩口口口
口口口口
⑩⑥⑦口 |⑥⑦⑧⑨|
口⑧⑨口 |⑩---|
37
③②口① |①---|
①口口② |----|
②口口① |②---|
①口②口 |--③-|
38
口口口口 |①-②-|
口①口③ |③---|
口口②口
口①口③

口口口口
口口口口
口口口口 |----|
④④口口 |--④-|
39
④口口④ |①---|
口口口口 |②-③-|
①①③③ |--④-|
口口②② |----|
40
⑤②口口 |①--②|
①①①① |--③-|
⑤①①③ |④---|
④口口口 |⑤---|
41
口②①口 |①---|
①口口② |----|
②口口① |②---|
口①②口 |----|
42
口口口① |①-②-|
④④②口 |③---|
口③口口 |----|
口③②口 |--④-|
43
①①③③ |①---|
口口②② |②-③-|
口④④口 |--④-|
口口口口 |----|
44
①口口② |①②③④|
③口口④ |⑤⑥⑦⑧|
⑤口口⑥
口⑦⑧口

口口口⑬
口⑪⑫⑭
⑭⑨⑩口 |⑨⑩⑪⑫|
⑬口口口 |⑬-⑭-|
45
②③④口 |①---|
①口④口 |--②-|
口④口① |③---|
口④③② |④---|
46
②口口① |①--②|
⑥口口⑤ |--③-|
⑤③④⑥ |④---|
①口口口 |⑤-⑥-|
47
①②③④ |①---|
口口④口 |--②-|
口④口口 |③---|
④③②① |④---|
48
②口口口 |①--②|
⑥⑤⑥① |--③-|
①口④③ |④---|
口口口口 |⑤-⑥-|
49
口①口口 |①---|
口④③④ |--②-|
口①口口 |③--④|
口②②口 |----|
50
②口①口 |①--②|
口口口口 |--③-|
口③①口
口口口口

口⑤⑥口
口⑦口口
口口口④ |④-⑤-|
口口口口 |⑥-⑦-|
51
口口口口 |①---|
口口①口 |--②-|
口口④口 |③---|
②③④口 |④---|
52
①⑤⑥② |①②③④|
③⑦⑧④ |⑤⑥⑦⑧|
口口口①
口口口①

口口口⑬
口口口⑭
⑭⑨⑩口 |⑨⑩⑪⑫|
⑬⑪⑫口 |⑬-⑭-|
53
②③④口 |①---|
①口④口 |--②-|
口④口① |③---|
口④③② |④---|
54
②口口① |①--②|
口口口⑤ |--③-|
⑤③④口 |④---|
①口口口 |⑤---|
55
②③④口 |①---|
①口④口 |--②-|
口④口① |③---|
口④③② |④---|
56
②口口① |①--②|
口口口口 |--③-|
口③口口
①口口口

口口口⑤
⑥口口口
口口④口 |④--⑤|
口口口口 |--⑥-|
57
口口口口 |①---|
口①口② |②-③-|
口口③④ |----|
口口口口 |④---|
58
口口②口 |①---|
①口口③ |②-③-|
③口①口
口②口口

④口口⑤
口口口口
口口⑥口 |④--⑤|
口口口口 |--⑥-|
59
口①②口 |①-②-|
口③④口 |③-④-|
⑤⑥⑥⑤ |⑤---|
⑥⑤⑤⑥ |⑥---|
60
②④③⑤ |①--②|
①①①① |--③-|
口口⑥口 |④--⑤|
口口口口 |--⑥-|
61
①口⑧口 |①②③④|
③①⑥口 |⑤⑥⑦⑧|
口⑤口④
口⑦口②

口⑨口⑯
口⑪口⑭
⑬口⑫口 |⑨⑩⑪⑫|
⑮口⑩口 |⑬⑭⑮⑯|
62
①⑤口口 |①②③④|
③⑦口口 |⑤⑥⑦⑧|
口①⑧④
口口⑥②

口口⑩⑭
口口⑫⑯
⑮⑪口口 |⑨⑩⑪⑫|
⑬⑨口口 |⑬⑭⑮⑯|
63
①口⑧口 |①②③④|
③①⑥口 |⑤⑥⑦⑧|
口⑤口④
口⑦口②

口⑨口⑯
口⑪口⑭
⑬口⑫口 |⑨⑩⑪⑫|
⑮口⑩口 |⑬⑭⑮⑯|
64
①⑤口⑪ |①②③④|
③⑦口⑪ |⑤⑥⑦⑧|
⑨⑨⑧④ |⑨---|
⑩⑩⑥② |⑩-⑪-|
65
①口⑧口 |①②③④|
③①⑥口 |⑤⑥⑦⑧|
口⑤口④
口⑦口②

口⑨口⑯
口⑪口⑭
⑬口⑫口 |⑨⑩⑪⑫|
⑮口⑩口 |⑬⑭⑮⑯|
66
①⑤口口 |①②③④|
③⑦口口 |⑤⑥⑦⑧|
口①⑧④
口口⑥②

口口⑩⑭
口口⑫⑯
⑮⑪口口 |⑨⑩⑪⑫|
⑬⑨口口 |⑬⑭⑮⑯|
67
①口⑧口 |①②③④|
③①⑥口 |⑤⑥⑦⑧|
口⑤口④
口⑦口②

口⑨口⑯
口⑪口⑭
⑬口⑫口 |⑨⑩⑪⑫|
⑮口⑩口 |⑬⑭⑮⑯|
68
①⑤⑩⑭ |①②③④|
③⑦⑫⑯ |⑤⑥⑦⑧|
⑮⑪⑧④ |⑨⑩⑪⑫|
⑬⑨⑥② |⑬⑭⑮⑯|
69
口①口口 |①---|
①口口口 |----|
口口口① |----|
口口①口 |----|


不确定度: 0

最終更新:2012年11月14日 15:49