今すぐKiss Me
JURIAN BEAT CRISIS

BASIC

Level: 3
BPM: 180
Notes: 191

1
口口口口 |----|
口口口口 |----|
口口口口 |----|
口口口口 |----|
2
口口口口 |①---|
口口口口 |----|
①口口口 |②---|
口②③口 |③---|
3
口口口口 |①---|
口口口口 |----|
口口口口 |----|
口口口① |----|
4
口口口口 |①---|
①口口口 |----|
口②③口 |②---|
口口口口 |③---|
5
口口口口 |①---|
口口口口 |----|
口口口① |----|
口口口口 |----|
6
口口口口 |①---|
口①①口 |----|
口口口口 |----|
口口口口 |----|
7
口口口口 |①---|
口口口口 |----|
口①①口 |----|
口口口口 |----|
8
①②口口 |①---|
口口口口 |----|
口口口口 |②---|
口口口口 |----|
9
口口口口 |①---|
③口②① |----|
口口口口 |②---|
口口口口 |③---|
10
口口口口 |①---|
口口口口 |----|
①②口口 |②---|
口口口口 |----|
11
口口口口 |①---|
口口口口 |----|
口口口① |②---|
口口③② |③---|
12
口口口口 |①---|
①口②口 |----|
口口口口 |②---|
口口口口 |----|
13
口口①口 |①---|
口②口口 |②---|
口口③口 |③---|
口口口口 |----|
14
口口口口 |①---|
口②口① |----|
口口口口 |②---|
口口口口 |----|
15
口口口口 |①---|
口口口口 |----|
口①①口 |②---|
口②②口 |----|
16
口口口口 |①---|
①口②口 |----|
口口口口 |②---|
口口口口 |----|
17
口口①口 |①---|
口②口口 |②---|
口口③口 |③---|
口④口口 |④---|
18
口口口口 |①---|
口②口① |----|
口口口口 |②---|
口口口口 |----|
19
口口口口 |①---|
口口口口 |②---|
①②③④ |③---|
口口口口 |④---|
20
口口口口 |----|
口口口口 |①---|
口口口口 |----|
口①①口 |----|
21
口口②口 |①---|
口①口口 |----|
口口口口 |②---|
口口口口 |----|
22
口①口口 |①---|
口口②口 |②---|
口③口口 |③---|
口口口口 |----|
23
口口口口 |----|
口口口口 |----|
口口口口 |----|
口口口口 |----|
24
口口口口 |----|
口口口口 |①---|
口口口口 |----|
口①①口 |----|
25
口②口口 |①---|
口口①口 |----|
口口口口 |②---|
口口口口 |----|
26
②口口② |①---|
①口口① |----|
口口口口 |②---|
口口口口 |----|
27
口口口口 |----|
口口口口 |----|
口口口口 |----|
口口口口 |----|
28
口口口口 |①---|
口口口口 |----|
口②口① |②---|
口口口口 |----|
29
口口口口 |①---|
口③口口 |②---|
口口②口 |③---|
口①口口 |----|
30
口口口口 |①---|
口口口口 |----|
①口②口 |②---|
口口口口 |----|
31
口②②口 |①---|
口①①口 |----|
口口口口 |②---|
口口口口 |----|
32
口口口口 |①---|
口口口口 |----|
口②口① |②---|
口口口口 |----|
33
口口④口 |①---|
口③口口 |②---|
口口②口 |③---|
口①口口 |④---|
34
口口口口 |①---|
口口口口 |----|
①口②口 |②---|
口口口口 |----|
35
口口口口 |①---|
④③②① |②---|
口口口口 |③---|
口口口口 |④---|
36
口①①口 |----|
口口口口 |①---|
口口口口 |----|
口口口口 |----|
37
口口口口 |①---|
口口口口 |----|
口口①口 |②---|
口②口口 |----|
38
口口口口 |①---|
口口③口 |②---|
口②口口 |③---|
口口①口 |----|
39
口口口口 |----|
口口口口 |----|
口口口口 |----|
口口口口 |----|
40
口①①口 |----|
口口口口 |①---|
口口口口 |----|
口口口口 |----|
41
口口口口 |①---|
口口口口 |----|
口①口口 |②---|
口口②口 |----|
42
口口口口 |①---|
②口口② |----|
①口口① |②---|
口口口口 |----|
43
口口口口 |①---|
口②②口 |----|
口①①口 |②---|
口口口口 |----|
44
口④③口 |①---|
口口口② |②---|
口口①口 |③---|
口口口口 |④---|
45
口口口口 |①---|
口①①口 |----|
口口口口 |②---|
③②②③ |③---|
46
口③④口 |①---|
②口口口 |②---|
口①口口 |③---|
口口口口 |④---|
47
口口口口 |①---|
口①①口 |----|
口口口口 |----|
口口口口 |----|
48
口口口口 |①---|
口①口口 |----|
口②口口 |②---|
口口口口 |----|
49
口口口口 |①---|
口口②口 |----|
口口①口 |②---|
口口口口 |----|
50
口口①口 |①---|
口②口口 |②---|
口口③口 |③---|
口口口口 |----|
51
口口口口 |----|
口口口口 |----|
口口口口 |----|
口口口口 |----|
52
口④③口 |①---|
口口口② |②---|
口口①口 |③---|
口口口口 |④---|
53
口口口口 |①---|
口①①口 |----|
口口口口 |②---|
③②②③ |③---|
54
口③④口 |①---|
②口口口 |②---|
口①口口 |③---|
口口口口 |④---|
55
口口口口 |①---|
口①①口 |----|
口口口口 |②---|
口②②口 |----|
56
口口口口 |①---|
口②②口 |----|
口①①口 |②---|
口口口口 |----|
57
①口口① |①---|
口口口口 |----|
②口口② |②---|
口口口口 |----|
58
口口口口 |①---|
①口口① |----|
口口口口 |----|
口口口口 |----|
59
口口口口 |----|
口口口口 |----|
口口口口 |----|
口口口口 |----|
60
口口口口 |①---|
①口口口 |----|
口②③口 |②---|
口口口口 |③---|
61
口口口口 |①---|
口口口口 |----|
口口口① |----|
口口口口 |----|
62
口①①口 |①---|
口口口口 |----|
口口口口 |----|
口口口口 |----|
63
口口口口 |①---|
口口①口 |②---|
口②口口 |③---|
口口③口 |----|
64
口口口口 |①---|
①口口① |----|
口口口口 |----|
口口口口 |----|
65
口口口口 |①---|
口①口口 |②---|
口口②口 |③---|
口③口口 |----|
66
口口口口 |①---|
口口口口 |----|
①口口口 |②---|
口②③口 |③---|
67
口口口口 |①---|
口口口口 |----|
口口口口 |----|
口口口① |----|
68
口口口口 |①---|
①口口口 |----|
口②③口 |②---|
口口口口 |③---|
69
口口口口 |①---|
口口口口 |----|
口口口① |----|
口口口口 |----|
70
口口口口 |①---|
口口口口 |----|
口①①口 |----|
口口口口 |----|
71
口口口口 |①---|
口①①口 |----|
口口口口 |----|
口口口口 |----|
72
①②口口 |①---|
口口口口 |----|
口口口口 |②---|
口口口口 |----|
73
口口口口 |①---|
③口②① |----|
口口口口 |②---|
口口口口 |③---|
74
口口口口 |①---|
口口口口 |----|
①②口口 |②---|
口口口口 |----|
75
口口口口 |①---|
口口口口 |----|
口口口① |②---|
口口③② |③---|
76
口口口口 |①---|
口口口口 |----|
口①①口 |----|
口口口口 |----|


不确定度: 0

最終更新:2012年11月14日 15:48