405nm (Ryu☆mix)
Another Infinity

ADVANCED

Level: 9
BPM: 177
Notes: 770

1
口口口口 |----|
口口口口 |----|
口口口口 |----|
口口口口 |----|
2
口⑤⑤口 |①---|
④口口④ |----|
③口①③ |②-③-|
口②②口 |④-⑤-|
3
口口口口 |①---|
口①①口 |----|
口①①口 |----|
口口口口 |----|
4
⑯⑧⑦⑮ |①②③④|
⑭⑥⑤⑬ |⑤⑥⑦⑧|
⑫④③⑪ |⑨⑩⑪⑫|
⑩②①⑨ |⑬⑭⑮⑯|
5
口⑤⑤口 |①-②-|
口④口口 |③-④-|
口口③口 |⑤---|
口①②口 |----|
6
⑦口口① |①-②-|
⑦⑤③① |③-④-|
口口口口 |⑤-⑥-|
②④⑥⑧ |⑦-⑧-|
7
口口口口 |①-②-|
⑦⑤③① |③-④-|
⑦口③口 |⑤-⑥-|
②④⑥⑧ |⑦-⑧-|
8
口口③口 |①-②-|
口⑤③① |③-④-|
口口口口 |⑤-⑥-|
②④⑥⑦ |--⑦-|
9
⑦⑤③① |①-②-|
口口口口 |③-④-|
②④⑥⑧ |⑤-⑥-|
②口⑥口 |⑦-⑧-|
10
⑦⑤③① |①-②-|
②口口口 |③-④-|
②④⑥⑧ |⑤-⑥-|
口口口口 |⑦-⑧-|
11
口⑧③① |①-②-|
口⑦口口 |③-④-|
②口⑥口 |⑤-⑥-|
②⑤④口 |⑦-⑧-|
12
⑧⑯⑮⑦ |①②③④|
⑥⑭⑬⑤ |⑤⑥⑦⑧|
④⑫⑪③ |⑨⑩⑪⑫|
②⑩⑨① |⑬⑭⑮⑯|
13
④口口③ |①-②-|
④口口③ |③-④-|
②⑥⑥① |⑤---|
②⑤⑤① |⑥---|
14
口①①口 |①---|
口口口口 |----|
①口口① |----|
口口口口 |----|
15
口口口口 |----|
口口口口 |----|
口口口口 |----|
口口口口 |----|
16
④⑤⑧口 |①-②-|
口⑥⑦③ |③-④-|
口口口② |⑤-⑥-|
口口口① |⑦-⑧-|
17
口口⑦⑧ |①-②-|
⑤⑥口口 |③-④-|
④③②① |⑤-⑥-|
口口口口 |⑦-⑧-|
18
口⑧口口 |①-②-|
口⑦①口 |③-④-|
⑤⑥②口 |⑤-⑥-|
④口③口 |⑦-⑧-|
19
⑤口口① |①-②-|
⑥口口② |③-④-|
口⑦③口 |⑤-⑥-|
口⑧④口 |⑦-⑧-|
20
口③②① |①-②-|
⑧⑦⑥口 |③-④-|
口口⑤④ |⑤-⑥-|
口口口口 |⑦-⑧-|
21
口口口口 |①-②-|
⑧⑦口口 |③-④-|
口口⑥⑤ |⑤-⑥-|
①②③④ |⑦-⑧-|
22
①②③④ |①-②-|
口口口⑦ |③-④-|
口口⑥口 |⑤-⑥-|
⑧⑤口口 |⑦-⑧-|
23
口⑧⑥③ |①-②-|
⑦⑤②口 |③-④-|
④①口口 |⑤-⑥-|
口口口口 |⑦-⑧-|
24
①口口口 |①--②|
口口口⑤ |--③-|
④口②口 |-④--|
口③⑥① |⑤-⑥-|
25
口口口③ |①--②|
口⑥①口 |--③-|
口①⑤口 |-④--|
②④口口 |⑤-⑥-|
26
①④口② |①--②|
⑤口③口 |--③-|
①口口⑥ |-④--|
口口口口 |⑤-⑥-|
27
③口①口 |①--②|
口②口① |--③-|
口口⑤口 |-④--|
口⑥口④ |⑤-⑥-|
28
口①口口 |①--②|
①④⑤③ |--③-|
口③⑥② |-④--|
④⑥②⑤ |⑤-⑥-|
29
③①④⑥ |①--②|
⑥口口② |--③-|
①③口⑤ |-④--|
⑤口②④ |⑤-⑥-|
30
⑯⑧⑦⑮ |①②③④|
⑭⑥⑤⑬ |⑤⑥⑦⑧|
⑫④③⑪ |⑨⑩⑪⑫|
⑩②①⑨ |⑬⑭⑮⑯|
31
口④④口 |①-②-|
口②③口 |③-④-|
⑤③②⑤ |⑤---|
⑤①①⑤ |----|
32
口口⑥口 |①--②|
①⑤口口 |--③-|
口④②③ |-④--|
④①口口 |⑤-⑥-|
33
②口口① |①--②|
口⑦①口 |--③-|
⑥④口⑤ |④-⑤-|
口③④口 |⑥-⑦-|
34
③①口② |①--②|
口口①口 |--③-|
口⑤口口 |-④--|
⑥④⑤口 |⑤-⑥-|
35
口③②① |①--②|
④口①口 |--③-|
口口⑥⑤ |④-⑤-|
口⑦口口 |⑥-⑦-|
36
口⑥口口 |①--②|
口口⑤① |--③-|
③②口④ |-④--|
口口①⑤ |⑤-⑥-|
37
①口口② |①--②|
④口⑦口 |--③-|
⑤口口⑥ |④-⑤-|
口④③口 |⑥-⑦-|
38
②①口③ |①--②|
口口口口 |--③-|
口口①口 |-④--|
口⑤④⑥ |⑤-⑥-|
39
①②③口 |①--②|
⑤①口④ |--③-|
⑥口⑦口 |④-⑤-|
口口口口 |⑥-⑦-|
40
⑦③⑤① |①-②-|
⑧⑤③口 |③-④-|
⑦口口① |⑤-⑥-|
②④⑥⑧ |⑦-⑧-|
41
口口⑤⑤ |①-②-|
口口口③ |③-④-|
⑦口口① |⑤-⑥-|
②④⑥⑧ |⑦-⑧-|
42
③①⑤口 |①-②-|
①③⑥⑤ |③-④-|
口⑧⑦⑥ |⑤-⑥-|
②④⑥⑧ |⑦-⑧-|
43
③④口口 |①-②-|
⑤口口⑦ |③-④-|
①口口口 |⑤-⑥-|
②④⑥⑧ |⑦-⑧-|
44
⑦⑤③① |①-②-|
⑧③⑤口 |③-④-|
⑦口口① |⑤-⑥-|
②④⑥⑧ |⑦-⑧-|
45
⑦⑧⑤⑤ |①-②-|
口口口③ |③-④-|
口口口① |⑤-⑥-|
②④⑥⑧ |⑦-⑧-|
46
⑧⑦⑦⑥ |①-②-|
③④④⑤ |③-④-|
口②②① |⑤-⑥-|
口口口口 |⑦-⑧-|
47
口口口口 |①-②-|
④③③④ |③-④-|
⑤②②⑤ |⑤---|
①⑤⑤① |----|
48
①⑥④① |①-②-|
口口②③ |③-④-|
⑥①口⑤ |--⑤-|
口口⑦口 |⑥-⑦-|
49
口口⑥③ |①-②-|
③⑦④⑤ |③-④-|
口口②⑦ |⑤-⑥-|
⑦③⑧① |⑦-⑧-|
50
③⑥⑦③ |①-②-|
口口④⑤ |③-④-|
⑥③②口 |--⑤-|
口口口① |⑥-⑦-|
51
口口⑧⑤ |①-②-|
③⑦⑥⑦ |③-④-|
口口④① |⑤-⑥-|
⑦③②③ |⑦-⑧-|
52
⑤⑥⑦⑧ |①-②-|
⑤⑥⑦⑧ |③-④-|
①②口④ |⑤-⑥-|
口口③口 |⑦-⑧-|
53
口口口口 |①-②-|
口口口口 |③-④-|
①⑦③⑤ |⑤-⑥-|
⑧②⑥④ |⑦-⑧-|
54
①④②③ |①-②-|
④①③② |③-④-|
⑤口口⑥ |--⑤-|
⑦口口口 |⑥-⑦-|
55
①⑦⑦① |--①-|
②⑥⑥③ |②-③-|
⑤口口⑤ |④-⑤-|
口④④口 |⑥-⑦-|
56
①⑤⑥④ |①--②|
⑤口口⑥ |--③-|
口②③口 |-④--|
口口口口 |⑤-⑥-|
57
⑦口口⑦ |①--②|
⑥⑤⑤口 |--③-|
②口④① |④-⑤-|
③②①③ |⑥-⑦-|
58
口⑥口口 |①--②|
口口⑤① |--③-|
③②④口 |-④--|
②口①④ |⑤-⑥-|
59
①⑦②② |①--②|
口①⑦③ |--③-|
⑤口④⑥ |④-⑤-|
口④③口 |⑥-⑦-|
60
②口①③ |①--②|
口①口口 |--③-|
口④⑤口 |-④--|
口⑤④⑥ |⑤-⑥-|
61
①②③口 |①--②|
口①⑥④ |--③-|
⑤⑥口口 |④-⑤-|
口口⑦口 |⑥-⑦-|
62
口④⑥口 |①--②|
①⑤口口 |--③-|
④口②③ |-④--|
⑤①口② |⑤-⑥-|
63
②口口① |①--②|
口口①④ |--③-|
口⑦口⑥ |④-⑤-|
⑤③④口 |⑥-⑦-|
64
①⑤③⑦ |①-②-|
口③⑤⑧ |③-④-|
①口口⑦ |⑤-⑥-|
⑧⑥④② |⑦-⑧-|
65
⑤⑤口口 |①-②-|
③口口口 |③-④-|
①口口⑦ |⑤-⑥-|
⑧⑥④② |⑦-⑧-|
66
口⑤①③ |①-②-|
⑤⑥③① |③-④-|
⑥⑦⑧口 |⑤-⑥-|
⑧⑥④② |⑦-⑧-|
67
口口④③ |①-②-|
⑦口口⑤ |③-④-|
口口口① |⑤-⑥-|
⑧⑥④② |⑦-⑧-|
68
①③⑤⑦ |①-②-|
口⑤③⑧ |③-④-|
①口口⑦ |⑤-⑥-|
⑧⑥④② |⑦-⑧-|
69
⑤⑤⑧⑦ |①-②-|
③口口口 |③-④-|
①口口口 |⑤-⑥-|
⑧⑥④② |⑦-⑧-|
70
⑥⑦⑦⑧ |①-②-|
⑤④④③ |③-④-|
①②②口 |⑤-⑥-|
口口口口 |⑦-⑧-|
71
口口口口 |①---|
口②②口 |②---|
②口口② |③---|
③①①③ |----|
72
①②口口 |①---|
②口口口 |②---|
口①口口
口口口口

口口③口
口口④③
口⑥⑤④ |③-④-|
口口⑥⑤ |⑤-⑥-|
73
③③口口 |①---|
②口口口 |②---|
①口口口 |③---|
②①④④ |④---|
74
口口②① |①---|
口口口② |②---|
口口①口
口口口口

口③口口
③④口口
④⑤⑥口 |③-④-|
⑤⑥口口 |⑤-⑥-|
75
②口口口 |①---|
口口③④ |②-③-|
口口口① |④---|
⑤口①② |--⑤-|
76
④⑥⑤③ |①-②-|
①⑧⑦口 |③-④-|
⑥口③⑤ |⑤-⑥-|
⑧①②⑦ |⑦-⑧-|
77
⑤口口⑤ |①-②-|
④口口④ |③-④-|
⑦②③⑥ |⑤---|
口①①口 |⑥-⑦-|
78
⑯⑧⑦⑮ |①②③④|
⑭⑥⑤⑬ |⑤⑥⑦⑧|
⑫④③⑪ |⑨⑩⑪⑫|
⑩②①⑨ |⑬⑭⑮⑯|
79
口④④口 |①-②-|
口②③口 |③-④-|
口③②⑥ |⑤---|
⑤①①⑤ |⑥---|
80
口口口口 |①---|
①①口口 |----|
①口①口 |----|
口①①口 |----|


不确定度: 0

タグ:

+ タグ編集
  • タグ:

このサイトはreCAPTCHAによって保護されており、Googleの プライバシーポリシー利用規約 が適用されます。

最終更新:2012年12月27日 16:40