今すぐKiss Me
JURIAN BEAT CRISIS

ADVANCED

Level: 6
BPM: 180
Notes: 420

1
口口口口 |----|
口口口口 |----|
口口口口 |----|
口口口口 |----|
2
口口④④ |①---|
口口⑤⑤ |②-③-|
口③口口 |--④-|
①②①口 |--⑤-|
3
口口口口 |----|
口口口口 |----|
口口口口 |----|
口口口口 |----|
4
④④口口 |①---|
⑤⑤口口 |②-③-|
口口③口 |--④-|
口①②① |--⑤-|
5
口口口口 |----|
口口口口 |----|
口口口口 |----|
口口口口 |----|
6
口口口口 |①---|
口口口口 |--②-|
①②①口 |----|
口口口② |----|
7
③口③口 |①---|
口口口口 |--②-|
口口口② |----|
①②①口 |③---|
8
口①口口 |①-②-|
口②⑤口 |③-④-|
口③⑥口 |--⑤-|
口④⑦口 |⑥-⑦-|
9
口口口⑤ |--①-|
①口口④ |②-③-|
②口口口 |--④-|
③口口口 |⑤---|
10
口①口口 |①-②-|
口②⑤口 |③-④-|
口③⑥口 |--⑤-|
口④⑦口 |⑥-⑦-|
11
口口口口 |--①-|
①口口⑤ |②-③-|
②口口④ |--④-|
③口口口 |⑤---|
12
口①口③ |①-②-|
口口口口 |③---|
②口口口
口②口口

④⑥⑥口
口口口口
口口口⑤ |④-⑤-|
口口⑤口 |--⑥-|
13
口口口口 |--①-|
口①②口 |②---|
口②①口 |③-④-|
④③③④ |----|
14
④⑦⑦口 |--①-|
③口口② |②-③-|
口口⑥① |④-⑤-|
口⑤口口 |⑥-⑦-|
15
口口口口 |----|
口①①口 |①-②-|
口口口口 |----|
②口口② |----|
16
④⑥⑥③ |--①-|
口口口口 |②-③-|
②口口⑤ |④-⑤-|
口①⑤口 |--⑥-|
17
口口口口 |①---|
①③②① |②-③-|
口②③口 |--④-|
④口口④ |----|
18
④⑦⑦口 |--①-|
③口口② |②-③-|
口口⑥① |④-⑤-|
口⑤口口 |⑥-⑦-|
19
口口口① |----|
口口②口 |①---|
口③口口 |②---|
口口口口 |③---|
20
③③口口 |①-②-|
口口口口 |③---|
口口口口 |----|
①口口② |----|
21
口口口口 |①---|
④④②② |②---|
口口口口 |③---|
①①③③ |④---|
22
口口④③ |①-②-|
口口⑥⑤ |③-④-|
①②口口 |⑤---|
口口口口 |⑥---|
23
②口口口 |①---|
口③口口 |②---|
口①④口 |③---|
口口口口 |④---|
24
口口③③ |①-②-|
口口口口 |③---|
口口口口 |----|
②口口① |----|
25
①①③③ |①---|
口口口口 |②---|
④④②② |③---|
口口口口 |④---|
26
②②②② |①---|
口口口口 |--②-|
口口口口 |----|
①③口① |--③-|
27
口②⑤口 |--①-|
口①④口 |②-③-|
口口口口 |--④-|
口口③口 |⑤---|
28
③⑤⑤② |--①-|
口口口口 |②---|
①口口④ |③-④-|
口①④口 |--⑤-|
29
口口口口 |--①-|
口①②口 |②---|
口②①口 |③-④-|
④③③④ |----|
30
④口口口 |--①-|
③口口② |②-③-|
口口⑥① |④-⑤-|
口⑤口口 |⑥---|
31
口①①口 |①---|
口口口口 |--②-|
口口口口 |----|
②口口② |----|
32
④⑥⑥③ |--①-|
口口口口 |②-③-|
②口口⑤ |④-⑤-|
口①⑤口 |--⑥-|
33
口口口口 |①---|
①③②① |②-③-|
口②③口 |--④-|
④口口④ |----|
34
口⑤⑦③ |--①-|
②口口口 |②-③-|
口口口① |④-⑤-|
口④⑥口 |⑥-⑦-|
35
口口口① |----|
口口②口 |①---|
口③口口 |②---|
口口口口 |③---|
36
③③口口 |①-②-|
口口口口 |③---|
口口口口 |----|
①口口② |----|
37
口口口口 |①---|
②②④④ |②---|
口口口口 |③---|
③③①① |④---|
38
③口口② |①-②-|
⑤⑥口口 |③-④-|
①口口④ |⑤---|
口口口口 |⑥---|
39
口口口② |①---|
口口③口 |②---|
口④①口 |③---|
口口口口 |④---|
40
③③口口 |①-②-|
口口口口 |③---|
口口口口 |----|
①口口② |----|
41
③③①① |①---|
口口口口 |②---|
②②④④ |③---|
口口口口 |④---|
42
②②②② |①---|
口口口口 |--②-|
口口口口 |----|
①口口① |----|
43
②②②② |①---|
口口口口 |--②-|
口口口口 |----|
口①①口 |----|
44
⑤口口⑤ |①-②-|
口口④口 |③-④-|
②②③③ |--⑤-|
⑥①口⑥ |--⑥-|
45
口口口口 |----|
口口口口 |----|
口①口② |①---|
②口①口 |②---|
46
⑥①口⑥ |①-②-|
②②③③ |③-④-|
口口④口 |--⑤-|
⑤口口⑤ |--⑥-|
47
口口口口 |----|
口口口口 |----|
口口口口 |----|
口口口口 |----|
48
①口口口 |①---|
口口口口 |--②-|
口口口口 |----|
③口口② |③---|
49
口口口① |①---|
口②口口 |--②③|
口③⑥口 |④---|
口④⑤口 |⑤-⑥-|
50
口口口口 |①---|
②口①③ |②-③-|
口口口口 |----|
口口口口 |----|
51
口口口口 |----|
口口口口 |----|
口口口口 |----|
口口口口 |----|
52
⑤口口⑤ |①-②-|
口口④口 |③-④-|
②②③③ |--⑤-|
⑥①口⑥ |--⑥-|
53
口口口口 |----|
口口口口 |----|
口①口② |①---|
②口①口 |②---|
54
口①口口 |①-②-|
②②③③ |③-④-|
⑥口④⑥ |--⑤-|
⑤口口⑤ |--⑥-|
55
①口口口 |----|
口口口口 |----|
口口口口 |①---|
口口口② |②---|
56
③口口② |①---|
口口口口 |②-③-|
口口口口 |----|
①口口口 |----|
57
③口③口 |①---|
①③②口 |--②-|
①口②② |----|
①口口口 |③---|
58
口口④④ |①---|
口口⑤⑤ |②-③-|
口③口口 |--④-|
①②①口 |--⑤-|
59
口口口口 |----|
口口口口 |----|
口口口口 |----|
口口口口 |----|
60
④④口口 |①---|
⑤⑤口口 |②-③-|
口口③口 |--④-|
口①②① |--⑤-|
61
口口口口 |----|
口口口口 |----|
口口口口 |----|
口口口口 |----|
62
口口口口 |①---|
口④口口 |----|
①③①口 |--②-|
口②口口 |③-④-|
63
④①口口 |①---|
⑤口②② |②---|
口口③③ |③---|
口口口口 |④-⑤-|
64
口口口口 |①---|
口口④口 |----|
①口③口 |--②-|
口口②口 |③-④-|
65
①①口口 |①---|
②②口口 |②---|
③③④④ |③---|
口口口口 |④---|
66
口口④④ |①---|
口口⑤⑤ |②-③-|
口③口口 |--④-|
①②①口 |--⑤-|
67
口口口口 |----|
①②口口 |----|
口口口口 |①---|
口口口口 |②---|
68
④④口口 |①---|
⑤⑤口口 |②-③-|
口口③口 |--④-|
口①②① |--⑤-|
69
口口口口 |----|
口口口口 |----|
口口口口 |----|
口口口口 |----|
70
口口口口 |①---|
口口口口 |--②-|
①②①口 |----|
口口口② |----|
71
③口③口 |①---|
口口口口 |--②-|
口口口② |----|
①②①口 |③---|
72
口①口口 |①-②-|
口②⑤口 |③-④-|
口③⑥口 |--⑤-|
口④⑦口 |⑥-⑦-|
73
口口口⑤ |--①-|
①口口④ |②-③-|
②口口口 |--④-|
③口口口 |⑤---|
74
口①口口 |①-②-|
口②⑤口 |③-④-|
口③⑥口 |--⑤-|
口④⑦口 |⑥-⑦-|
75
口口口⑤ |--①-|
①口口④ |②-③-|
②口口口 |--④-|
③口口口 |⑤---|
76
口口口口 |①---|
口①①口 |----|
口①①口 |----|
口口口口 |----|


不确定度: 0

最終更新:2012年11月14日 15:48