今すぐKiss Me
JURIAN BEAT CRISIS

EXTREME

Level: 8
BPM: 180
Notes: 620

1
口口口口 |----|
口口口口 |----|
口口口口 |----|
口口口口 |----|
2
口口口② |①---|
口④⑤③ |②-③-|
口⑤④① |--④-|
②③①① |--⑤-|
3
①口口② |①-②-|
口⑤口⑥ |③-④-|
④口口③ |⑤-⑥-|
口⑧口⑦ |⑦-⑧-|
4
①①③② |①---|
①④⑤口 |②-③-|
③⑤④口 |--④-|
②口口口 |--⑤-|
5
⑦口⑧口 |①-②-|
③口口④ |③-④-|
⑥口⑤口 |⑤-⑥-|
②口口① |⑦-⑧-|
6
口口口口 |①---|
口口口口 |--②-|
口①②口 |----|
②口口① |----|
7
口口口口 |①---|
口口口口 |--②-|
②③口① |----|
口①②口 |③---|
8
①口口⑤ |①-②-|
⑥⑤①② |③-④-|
③口口⑦ |--⑤-|
口口口④ |⑥-⑦-|
9
①口口口 |--①-|
口口口② |②-③-|
③⑤⑤口 |--④-|
口④④口 |⑤---|
10
①口口⑤ |①-②-|
⑥⑤①② |③-④-|
③口口⑦ |--⑤-|
口口口④ |⑥-⑦-|
11
①口口口 |--①-|
口④④② |②-③-|
口⑤⑤口 |--④-|
③口口口 |⑤---|
12
口①①③ |①-②-|
口口口口 |③---|
②口口口
口②口口

④⑥⑥口
口口口口
口口口⑤ |④-⑤-|
口口⑤口 |--⑥-|
13
口口口口 |--①-|
④①②④ |②---|
口②①口 |③-④-|
④③③④ |----|
14
④⑦⑦② |--①-|
口口口口 |②-③-|
③⑥⑤① |④-⑤-|
口⑤⑥口 |⑥-⑦-|
15
口口口口 |----|
②①①② |①-②-|
口口口口 |----|
②口口② |----|
16
④⑥⑥③ |--①-|
口口口口 |②-③-|
②口口⑤ |④-⑤-|
口①⑤口 |--⑥-|
17
口口口口 |①---|
①③②① |②-③-|
口②③口 |--④-|
④口口④ |----|
18
④⑦⑦② |--①-|
口口口口 |②-③-|
③⑥⑤① |④-⑤-|
口⑤⑥口 |⑥-⑦-|
19
口口口① |----|
口口②口 |①---|
口③口口 |②---|
口口口口 |③---|
20
③③③口 |①-②-|
口口口④ |③---|
口口⑤口 |④-⑤-|
①⑥②② |⑥---|
21
②②④④ |①---|
①②③④ |②---|
①①③③ |③---|
口口口口 |④---|
22
口口口口 |①-②-|
⑥口口口 |③-④-|
口口口⑤ |⑤---|
①②④③ |⑥---|
23
②口口① |①---|
口③口口 |②---|
口口④口 |③---|
口口口口 |④---|
24
口③③③ |①-②-|
④口口口 |③---|
口⑤口口 |④-⑤-|
②②⑥① |⑥---|
25
④④②② |①---|
③④①② |②---|
③③①① |③---|
口口口口 |④---|
26
⑤⑥口⑥ |①---|
②口口② |--②-|
③②②④ |③-④-|
①①①① |⑤-⑥-|
27
口口口口 |--①-|
口⑤①口 |②-③-|
口②④口 |--④-|
③口③口 |⑤---|
28
口①①③ |①-②-|
口口口口 |③---|
②口口口
口②口口

④⑥⑥口
口口口口
口口口⑤ |④-⑤-|
口口⑤口 |--⑥-|
29
口口口口 |--①-|
④①②④ |②---|
口②①口 |③-④-|
④③③④ |----|
30
④口口② |--①-|
口口口口 |②-③-|
③⑥⑤① |④-⑤-|
口⑤⑥口 |⑥---|
31
口①①口 |①---|
③②②③ |②-③-|
口口口口 |----|
③口口③ |----|
32
④⑥⑥③ |--①-|
口口口口 |②-③-|
②口口⑤ |④-⑤-|
口①⑤口 |--⑥-|
33
口口口口 |①---|
①③②① |②-③-|
口②③口 |--④-|
④口口④ |----|
34
④⑦⑦② |--①-|
口口口口 |②-③-|
③⑥⑤① |④-⑤-|
口⑤⑥口 |⑥-⑦-|
35
口口口① |----|
口口②口 |①---|
口③口口 |②---|
口口口口 |③---|
36
③③③口 |①-②-|
口口口④ |③---|
口口⑤口 |④-⑤-|
①⑥②② |⑥---|
37
②②④④ |①---|
①②③④ |②---|
①①③③ |③---|
口口口口 |④---|
38
口口口口 |①-②-|
⑥口口口 |③-④-|
口口口⑤ |⑤---|
①②④③ |⑥---|
39
②口口① |①---|
口③口口 |②---|
口口④口 |③---|
口口口口 |④---|
40
口③③③ |①-②-|
④口口口 |③---|
口⑤口口 |④-⑤-|
②②⑥① |⑥---|
41
④④②② |①---|
③④①② |②---|
③③①① |③---|
口口口口 |④---|
42
口口口口 |①---|
②口口② |--②-|
口②②口 |----|
①①①① |----|
43
②②②② |①---|
口①①口 |--②-|
①口口① |----|
口口口口 |----|
44
③⑥④口 |①-②-|
⑥⑥口② |③-④-|
④口⑤⑤ |--⑤-|
口②⑤① |--⑥-|
45
口口③口 |----|
口口②③ |----|
①④口口 |①-②-|
口①口口 |③-④-|
46
口④口③ |①---|
②口⑤口 |②-③-|
口⑤口④ |--④-|
①口②口 |--⑤-|
47
①口②口 |①-②-|
口④口③ |③-④-|
⑤口⑥口 |⑤-⑥-|
口⑧口⑦ |⑦-⑧-|
48
③①③① |①---|
口口口口 |--②-|
口口口口 |----|
②口②口 |③---|
49
口②口② |①---|
口③口③ |--②③|
⑥④口④ |④---|
口①⑤① |⑤-⑥-|
50
口口口口 |①---|
④②①② |②-③-|
口⑦⑦⑤ |④-⑤-|
⑥③口③ |⑥-⑦-|
51
口口口③ |----|
②①①口 |--①-|
口口口② |--②-|
③口口口 |③---|
52
③⑥④口 |①-②-|
⑥⑥口② |③-④-|
④口⑤⑤ |--⑤-|
口②⑤① |--⑥-|
53
口口③口 |----|
口口②③ |----|
①④口口 |①-②-|
口①口口 |③-④-|
54
口④口③ |①---|
②口⑤口 |②-③-|
口⑤口④ |--④-|
①口②口 |--⑤-|
55
①⑤②⑤ |①-②-|
口④口③ |③-④-|
口口口口 |⑤---|
⑥口⑥口 |⑥---|
56
①口①口 |①---|
口③③口 |②-③-|
口③③口 |----|
口②口② |----|
57
③口③① |①---|
②③口① |--②-|
②③口① |----|
②②口口 |③---|
58
口口口② |①---|
口④⑤③ |②-③-|
口⑤④① |--④-|
②③①① |--⑤-|
59
①口口② |①-②-|
口⑤口⑥ |③-④-|
④口口③ |⑤-⑥-|
口⑧口⑦ |⑦-⑧-|
60
①①③② |①---|
①④⑤口 |②-③-|
③⑤④口 |--④-|
②口口口 |--⑤-|
61
⑦口⑧口 |①-②-|
③口口④ |③-④-|
⑥口⑤口 |⑤-⑥-|
②口口① |⑦-⑧-|
62
口口口口 |①---|
⑤⑤口口 |----|
④④②② |②-③-|
③③①① |④-⑤-|
63
口口①① |①---|
口口②口 |②---|
⑤口③③ |③---|
口口口④ |④-⑤-|
64
口口口口 |①---|
口口口① |----|
口口口口
口口口口

口口口口
口口④④
口口③③ |--②-|
口口②② |③-④-|
65
①①口口 |①---|
④②口口 |②---|
③③口口 |③---|
口口口口 |④---|
66
口口口② |①---|
口④⑤③ |②-③-|
口⑤④① |--④-|
②③①① |--⑤-|
67
①口口② |①-②-|
口⑤⑦⑥ |③-④-|
④口口③ |⑤-⑥-|
口⑧⑤⑦ |⑦-⑧-|
68
①①③② |①---|
①④⑤口 |②-③-|
③⑤④口 |--④-|
②口口口 |--⑤-|
69
⑦口⑧口 |①-②-|
③口口④ |③-④-|
⑥口⑤口 |⑤-⑥-|
②口口① |⑦-⑧-|
70
口口口口 |①---|
口口口口 |--②-|
口①②口 |----|
②口口① |----|
71
口口口口 |①---|
口口口口 |--②-|
②③口① |----|
口①②口 |③---|
72
①口口⑤ |①-②-|
⑥⑤①② |③-④-|
③口口⑦ |--⑤-|
口口口④ |⑥-⑦-|
73
①口口口 |--①-|
口口口② |②-③-|
③⑤⑤口 |--④-|
口④④口 |⑤---|
74
①口口⑤ |①-②-|
⑥⑤①② |③-④-|
③口口⑦ |--⑤-|
口口口④ |⑥-⑦-|
75
①口口口 |--①-|
口④④② |②-③-|
口口口口 |--④-|
③⑤⑤口 |⑤---|
76
①①①① |①---|
口口口口 |----|
口口口口 |----|
口口口口 |----|


不确定度: 0

最終更新:2012年11月14日 15:48