hammer ska
10-FEET

BASIC

Level: 3
BPM: 210
Notes: 271

1
口口口口 |----|
口口口口 |----|
口口口口 |----|
口口口口 |----|
2
口口口口 |①---|
口口②① |----|
口口口口 |②---|
口口口口 |----|
3
口口口口 |①---|
②①口口 |----|
口口口口 |②---|
口口口口 |----|
4
①②口口 |①---|
口口口口 |----|
口口口口 |②---|
口口口口 |----|
5
口口①② |①---|
口口口口 |----|
口口口口 |②---|
口口口口 |----|
6
口口口口 |①---|
口口口口 |----|
口口②① |②---|
口口口口 |----|
7
口口口口 |①---|
口口口口 |----|
②①口口 |②---|
口口口口 |----|
8
口口口口 |①---|
口口口口 |----|
口口口口 |②---|
①②口口 |----|
9
口口口口 |①---|
口口口口 |----|
口口口口 |②---|
口口①② |----|
10
口②口口 |①---|
口口①口 |----|
口口口口 |②---|
口口口口 |----|
11
口口①口 |①---|
口②口口 |----|
口口口口 |②---|
口口口口 |----|
12
口口口口 |①---|
②口口① |----|
口口口口 |②---|
口口口口 |----|
13
口口口口 |①---|
口口③口 |②---|
口②口口 |③---|
口口①口 |----|
14
口口口① |①---|
②口口口 |----|
口口口口 |②---|
口口口口 |----|
15
②口口口 |①---|
口口口① |----|
口口口口 |②---|
口口口口 |----|
16
口口口口 |①---|
②口口① |----|
口口口口 |②---|
口口口口 |----|
17
口口③口 |①---|
口②口口 |②---|
口口①口 |③---|
口口口口 |----|
18
②口口① |①---|
口口口口 |----|
口口口口 |②---|
口口口口 |----|
19
口口③口 |①---|
口口②口 |②---|
口口①口 |③---|
口口口口 |----|
20
口口口口 |①---|
②口口① |----|
口口口口 |②---|
口口口口 |----|
21
口③口口 |①---|
口②口口 |②---|
口①口口 |③---|
口口口口 |----|
22
口口口口 |①---|
口口口口 |----|
②口口① |②---|
口口口口 |----|
23
口口口口 |①---|
口口③口 |②---|
口口②口 |③---|
口口①口 |----|
24
口口口口 |①---|
口口口口 |----|
口口口口 |②---|
②口口① |----|
25
口口口口 |①---|
口③口口 |②---|
口②口口 |③---|
口①口口 |----|
26
①口口① |①---|
口口口口 |----|
口口口口 |----|
口口口口 |----|
27
口口口口 |①---|
口口①① |----|
口口口口 |----|
口口口口 |----|
28
口口口口 |①---|
①①口口 |----|
口口口口 |----|
口口口口 |----|
29
口口口口 |①---|
口口口口 |----|
口①①口 |----|
口口口口 |----|
30
口口口口 |①---|
口口口口 |----|
口口口口 |----|
口口①① |----|
31
口口口口 |①---|
口口口口 |----|
口口口口 |----|
①①口口 |----|
32
口口口口 |①---|
口口口口 |----|
口①①口 |----|
口口口口 |----|
33
口①①口 |①---|
口口口口 |----|
口口口口 |----|
口口口口 |----|
34
口口口口 |①---|
口口口口 |----|
口口②① |②---|
口口口口 |----|
35
口口口口 |①---|
②口②口 |----|
口①口口 |②---|
口口口口 |----|
36
①②口口 |①---|
口口口口 |----|
口口口口 |②---|
口口口口 |----|
37
口口①口 |①---|
口②口② |----|
口口口口 |②---|
口口口口 |----|
38
口口口口 |①---|
口口口口 |----|
口口②口 |②---|
口口①口 |----|
39
口②口② |①---|
口口①口 |----|
口口口口 |②---|
口口口口 |----|
40
口口口口 |①---|
口口口口 |----|
口②口② |②---|
口口①口 |----|
41
②口②口 |①---|
口①口口 |----|
口口口口 |②---|
口口口口 |----|
42
口口口口 |①---|
口①口口 |②---|
口②口口 |③---|
口③口口 |----|
43
④口口④ |①---|
口口③口 |②---|
口②口口 |③---|
口口①口 |④---|
44
口口口口 |----|
口口口口 |①---|
口口口口 |----|
②口口① |②---|
45
口口口口 |----|
口口③口 |①---|
口口②口 |②---|
口口①口 |③---|
46
口②①口 |----|
口口口口 |①---|
口口③口 |②---|
口口口口 |③---|
47
口口④口 |①---|
口③②口 |②---|
口①口口 |③---|
口口口口 |④---|
48
口①口口 |①---|
口口口口 |②---|
口③②口 |③---|
口口口口 |----|
49
口口口口 |①---|
口②口口 |----|
口口口口 |②---|
口①口口 |----|
50
口①①口 |①---|
口口口口 |----|
口口口口 |----|
口口口口 |----|
51
口口口口 |①---|
①口口① |----|
口②②口 |②---|
口口口口 |----|
52
口①①口 |①---|
口口口口 |----|
口口口口 |----|
口口口口 |----|
53
口口口口 |①---|
口②②口 |----|
口①①口 |②---|
口口口口 |----|
54
①口口① |①---|
口口口口 |----|
口口口口 |----|
口口口口 |----|
55
口口口口 |①---|
①口口① |----|
口②②口 |②---|
口口口口 |----|
56
口①①口 |①---|
口口口口 |----|
口口口口 |----|
口口口口 |----|
57
口口口口 |①---|
口②②口 |----|
①口口① |②---|
口口口口 |----|
58
口口口口 |①---|
口口口口 |----|
口口口口 |----|
口①①口 |----|
59
口口口口 |----|
口口口口 |----|
口口口口 |----|
口口口口 |----|
60
口口口口 |①---|
口②②口 |----|
口口口口 |②---|
口①①口 |----|
61
②②②② |①---|
口口口口 |----|
口口口口 |②---|
口①①口 |----|
62
口口口口 |①---|
口①①口 |----|
口口口口 |②---|
口口②口 |----|
63
口口①口 |①---|
口口②口 |②---|
口口③口 |③---|
口口口口 |----|
64
口口口口 |①---|
①口口① |----|
口口口口 |②---|
口②口口 |----|
65
口①口口 |①---|
口②口口 |②---|
口③口口 |③---|
口口口口 |----|
66
②口口口 |①---|
①口口① |----|
口口口口 |②---|
口口口口 |----|
67
口口①口 |①---|
口②口口 |②---|
③口口口 |③---|
口口口口 |----|
68
口口口口 |①---|
口③口口 |②---|
口④②口 |③---|
口口①口 |④---|
69
口口口口 |①---|
②口口② |----|
口口口口 |②---|
口①口口 |----|
70
口口②口 |①---|
口①①口 |----|
口口口口 |②---|
口口口口 |----|
71
口口口口 |①---|
口口③口 |②---|
口口②口 |③---|
口口①口 |----|
72
口②口口 |①---|
①口口① |----|
口口口口 |②---|
口口口口 |----|
73
口口口口 |①---|
口③口口 |②---|
口②口口 |③---|
口①口口 |----|
74
口口口② |①---|
口口口口 |----|
①口口① |②---|
口口口口 |----|
75
口①口口 |①---|
口口②口 |②---|
口口口③ |③---|
口口口口 |----|
76
口口口口 |①---|
口口③口 |②---|
口②④口 |③---|
口①口口 |④---|
77
口口口口 |①---|
②口口② |----|
口口口口 |②---|
口口①口 |----|
78
①口口① |①---|
口口口口 |----|
口口口口 |②---|
口口口② |----|
79
口口口① |①---|
口口口② |②---|
口口口③ |③---|
口口口口 |----|
80
口①①口 |①---|
口口口口 |----|
口口口口 |②---|
②口口口 |----|
81
①口口口 |①---|
②口口口 |②---|
③口口口 |③---|
口口口口 |----|
82
②口口口 |①---|
口①①口 |----|
口口口口 |②---|
口口口口 |----|
83
口口①口 |①---|
口②口口 |②---|
③口口口 |③---|
口口口口 |----|
84
口③口口 |①---|
口④②口 |②---|
口口①口 |③---|
口口口口 |④---|
85
②口口② |①---|
口口口口 |----|
口①口口 |②---|
口口口口 |----|
86
口①①口 |①---|
口口口口 |----|
口口口口 |②---|
口口②口 |----|
87
口口①口 |①---|
口口②口 |②---|
口口③口 |③---|
口口口口 |----|
88
①口口① |①---|
口口口口 |----|
口口口口 |②---|
口②口口 |----|
89
口①口口 |①---|
口②口口 |②---|
口③口口 |③---|
口口口口 |----|
90
口口口② |①---|
①口口① |----|
口口口口 |②---|
口口口口 |----|
91
口①口口 |①---|
口口②口 |②---|
口口口③ |③---|
口口口口 |----|
92
口口③口 |①---|
口②④口 |②---|
口①口口 |③---|
口口口口 |④---|
93
②口口② |①---|
口口口口 |----|
口口①口 |②---|
口口口口 |----|
94
口口口口 |①---|
口口口口 |----|
口口口② |②---|
口口口① |----|
95
口口口口 |①---|
口口口口 |----|
口口①口 |②---|
口口②口 |----|
96
口口口口 |①---|
口口口口 |----|
口口口口 |②---|
②①口口 |----|
97
口口口口 |①---|
口口口口 |----|
①②口口 |②---|
口口口口 |----|
98
口口口口 |①---|
口①②口 |----|
口口口口 |②---|
口口口口 |----|
99
口②①口 |①---|
口口口口 |----|
口口口口 |②---|
口口口口 |----|
100
④口口④ |①---|
④口③④ |②---|
口②口口 |③---|
口口①口 |--④-|


不确定度: 0

最終更新:2012年11月14日 15:48