hammer ska
10-FEET

ADVANCED

Level: 6
BPM: 210
Notes: 525

1
口口口口 |----|
口口口口 |----|
口口口口 |----|
口口口口 |----|
2
口口口④ |①-②-|
口口②③ |--③-|
口口①口 |④---|
口口口口 |----|
3
③口口口 |①---|
口②口口 |②---|
口口①口 |③---|
口口口口 |----|
4
口口口口 |①---|
口口口口 |②---|
口口口口 |③---|
①②③④ |④---|
5
口口口③ |①---|
口口②口 |②---|
口①口口 |③---|
口口口口 |----|
6
④口口口 |①-②-|
③②口口 |--③-|
口①口口 |④---|
口口口口 |----|
7
口口口③ |①---|
口口②口 |②---|
口①口口 |③---|
口口口口 |----|
8
口口口口 |①---|
口口口口 |②---|
口口口口 |③---|
④③②① |④---|
9
③口口口 |①---|
口②口口 |②---|
口口①口 |③---|
口口口口 |----|
10
口口口④ |①-②-|
口口②③ |--③-|
口口①口 |④---|
口口口口 |----|
11
①口口口 |①---|
口②口口 |②---|
口口③口 |③---|
口口口口 |----|
12
口口口口 |①---|
口口口口 |②---|
口口口口 |③---|
①②③④ |④---|
13
口③口③ |①---|
口口②口 |②---|
口①口口 |③---|
口口口口 |----|
14
④口口口 |①-②-|
③②口口 |--③-|
口①口口 |④---|
口口口口 |----|
15
口口口① |①---|
口口②口 |②---|
口③口口 |③---|
口口口口 |----|
16
口口口口 |①---|
口口口口 |②---|
口口口口 |③---|
④③②① |④---|
17
③口③口 |①---|
口②口口 |②---|
口口①口 |③---|
口口口口 |----|
18
口口口口 |①---|
①口①口 |----|
口口口口 |②---|
口②口② |----|
19
口①口① |①---|
口②口② |②---|
口③口③ |③---|
口口口口 |----|
20
①口①口 |①---|
口口口口 |----|
口②口② |②---|
口口口口 |----|
21
口口口口 |①---|
①口①口 |②---|
②口②口 |③---|
③口③口 |----|
22
口口口口 |①---|
①口①口 |----|
口口口口 |②---|
口②口② |----|
23
①口①口 |①---|
②口②口 |②---|
③口③口 |③---|
口口口口 |----|
24
口口口口 |①---|
口①口① |----|
口口口口 |②---|
②口②口 |----|
25
口①口① |①---|
口②口② |②---|
口③口③ |③---|
口口口口 |----|
26
①①①① |①---|
口口口口 |----|
口口口口 |----|
口口口口 |----|
27
口口口口 |①---|
口口①口 |----|
口①口口 |----|
口口口口 |----|
28
①口口口 |①---|
口口口口 |----|
口口口口 |----|
口口口① |----|
29
口口口口 |①---|
口口①口 |----|
口①口口 |----|
口口口口 |----|
30
口口口① |①---|
口口口口 |----|
口口口口 |----|
①口口口 |----|
31
口口口口 |①---|
口①口口 |----|
口口①口 |----|
口口口口 |----|
32
①口口口 |①---|
口口口口 |----|
口口口口 |----|
口口口① |----|
33
口口口口 |①---|
口①①口 |----|
口①①口 |----|
口口口口 |----|
34
③①口④ |①---|
口口②口 |②---|
口②口口 |③---|
④口①③ |④---|
35
口口②④ |①---|
③①④口 |②---|
口④①③ |③---|
④②口口 |④---|
36
③①④口 |①---|
口口口② |②---|
②口口口 |③---|
口④①③ |④---|
37
口口④② |①---|
①口③口 |②---|
口③口① |③---|
②④口口 |④---|
38
口口口口 |①---|
①口口① |----|
口口口口 |②---|
②口口② |----|
39
①口口① |①---|
口口口口 |----|
②口口② |②---|
口口口口 |----|
40
①口①口 |①---|
口②口② |②---|
③口③口 |③---|
口口口口 |----|
41
口口口口 |①---|
③口③口 |②---|
口②口② |③---|
①口①口 |----|
42
③①口④ |①---|
口口口② |②---|
②口口口 |③---|
④口①③ |④---|
43
口口②④ |①---|
③①④口 |②---|
口④①③ |③---|
④②口口 |④---|
44
②口③口 |----|
口口口① |①---|
①口口口 |②---|
口③口② |③---|
45
口口④② |①---|
①口③口 |②---|
口③口① |③---|
②④口口 |④---|
46
口口口口 |----|
①口口① |①---|
口口口口 |----|
②口口② |②---|
47
①口口① |----|
口口口口 |①---|
②口口② |----|
口口口口 |②---|
48
①口口口 |----|
口①口口 |①---|
口口①口 |----|
口口口① |----|
49
②②②② |①---|
口口口口 |----|
口①口口 |②---|
口口①口 |----|
50
口口口口 |①---|
口口口① |----|
口口①口 |----|
口①口① |----|
51
口口口口 |--①-|
口口②口 |----|
口②①口 |②---|
口口口① |----|
52
口口口① |①---|
口口口口 |----|
口口口口 |----|
①口口口 |----|
53
口口口口 |①---|
口①②口 |----|
①口口② |②---|
口②①口 |----|
54
口口口口 |①---|
口口口口 |----|
口①①口 |----|
口口口口 |----|
55
口④口口 |--①-|
口口③口 |②-③-|
口②口口 |④---|
口口①口 |----|
56
①口口① |①---|
①口口① |----|
口口口口 |----|
口口口口 |----|
57
口口口口 |①---|
口口口口 |----|
②口口① |②---|
口②①口 |----|
58
口口口口 |①---|
口①①口 |----|
口口口口 |----|
口口口口 |----|
59
口口口口 |----|
口口口口 |----|
口口口口 |----|
口口口口 |----|
60
口口口口 |①---|
口④①口 |②---|
口口②口 |③---|
口口③口 |④---|
61
③口口③ |①---|
口口口口 |②---|
口①口口 |③---|
口②口口 |----|
62
口口口口 |①---|
①口④① |②---|
口①①③ |③---|
口口口② |④---|
63
口④④口 |①---|
口③口口 |②---|
②口口口 |③---|
①口口口 |④---|
64
口口口口 |①---|
①口口① |②---|
口①①④ |③---|
口口②③ |④---|
65
口④④口 |①---|
口口口口 |②---|
③口口口 |③---|
②①口口 |④---|
66
口口口口 |①---|
①口④① |②---|
口①①③ |③---|
口口②口 |④---|
67
口④④口 |①---|
口③口口 |②---|
②口口口 |③---|
口①口口 |④---|
68
①口口① |①---|
①④④① |②---|
口③③口 |③---|
口②②口 |④---|
69
②②②② |①---|
口口口口 |----|
①口口① |②---|
①口口① |----|
70
口口口口 |①---|
①口②① |②---|
口①①③ |③---|
口口口④ |④---|
71
口口口口 |①---|
口①口口 |②---|
②口口口 |③---|
③④④口 |④---|
72
口口②口 |①---|
①口③① |②---|
口①①④ |③---|
口口口口 |④---|
73
口①口口 |①---|
口②口口 |②---|
③口口口 |③---|
④口口④ |④---|
74
口口口口 |①---|
①②②① |----|
②①①② |②---|
口口口口 |----|
75
②口口② |①---|
①口口① |----|
②①①② |②---|
口口口口 |----|
76
口④口口 |①---|
口口③口 |②---|
口②口口 |③---|
口口①口 |④---|
77
①口口① |①---|
口口口口 |----|
②口口② |②---|
②口口② |----|
78
①③②① |①---|
口①①④ |②---|
口②③口 |③---|
④口口口 |④---|
79
口③②口 |①---|
①口口口 |②---|
④②③④ |③---|
口口口① |④---|
80
①③②① |①---|
口①①④ |②---|
口②③口 |③---|
④口口口 |④---|
81
③口口② |①---|
①口口口 |②---|
②④④③ |③---|
口口口① |④---|
82
口①①④ |①---|
①③②① |②---|
④口口口 |③---|
口②③口 |④---|
83
①③②口 |①---|
口口口口 |②---|
口②③① |③---|
口口口口 |----|
84
①口口① |①---|
①④④① |②---|
口③③口 |③---|
口②②口 |④---|
85
口口口口 |①---|
②口口② |----|
①口口① |②---|
①②②① |----|
86
①③②① |①---|
④①①④ |②---|
口②③口 |③---|
口口口口 |④---|
87
口口口口 |①---|
口口口口 |②---|
①③③① |③---|
②④④② |④---|
88
②①①② |①---|
①③③① |②---|
口④④口 |③---|
口口口口 |④---|
89
口④④口 |①---|
口口口口 |②---|
③口口③ |③---|
②①①② |④---|
90
①口口① |①---|
口①①口 |----|
口②②口 |②---|
②口口② |----|
91
①口口① |①---|
口①①口 |----|
口②②口 |②---|
②口口② |----|
92
④口口④ |①---|
③口口③ |②---|
②口口② |③---|
口①①口 |④---|
93
口②②口 |①---|
②口口② |----|
口①①口 |②---|
口口口口 |----|
94
口口口口 |①---|
口口口口 |--②-|
②口口① |----|
口口③口 |--③-|
95
口口口口 |--①-|
口口②口 |--②-|
口口①口 |----|
口口口口 |----|
96
口口口口 |①---|
②口口① |--②-|
口口口口 |----|
口③口口 |--③-|
97
口口口口 |--①-|
口②口口 |--②-|
口①口口 |----|
口口口口 |----|
98
口口口口 |①---|
口口口③ |--②-|
口②①口 |----|
口口口口 |--③-|
99
口口口口 |--①-|
口口口口 |--②-|
口口口① |----|
口口口② |----|
100
③③③③ |①---|
③②口③ |--②-|
口口口口 |----|
口①口口 |--③-|


不确定度: 0

最終更新:2012年11月14日 15:47