hammer ska
10-FEET

EXTREME

Level: 9
BPM: 210
Notes: 757

1
口口口口 |----|
口口口口 |----|
口口口口 |----|
口口口口 |----|
2
口口口④ |①-②-|
⑤⑥②口 |--③-|
口口口③ |④---|
口口①口 |⑤-⑥-|
3
口⑤①口 |①---②-|
口口②口 |--③---|
口口口③ |④---|
口口④口 |--⑤-|
4
⑤口口口 |--①-|
⑥口口③ |②---|
①②口④ |③-④-|
口口口口 |⑤-⑥-|
5
口口口口 |①-②-|
口口⑤⑤ |③-④-|
口③①口 |⑤---|
④口②口 |----|
6
④口口口 |①-②-|
口②⑥⑤ |--③-|
③口口口 |④---|
口①口口 |⑤-⑥-|
7
口①⑤口 |①---②-|
口②口口 |--③---|
③口口口 |④---|
口④口口 |--⑤-|
8
口口口⑤ |--①-|
③口口⑥ |--②-|
④口②① |③-④-|
口口口口 |⑤-⑥-|
9
口口口口 |①-②-|
⑤⑤口口 |③-④-|
⑥①口③ |⑤---|
口②口④ |⑥---|
10
③②④① |①-②-|
口口口⑤ |--③-|
口口口⑥ |④---|
①④②③ |⑤-⑥-|
11
口口口口 |①---②-|
口口口⑤ |--③---|
②①口口 |④---|
口④③口 |--⑤-|
12
口①⑥⑤ |--①-|
口②口口 |②---|
口口口口 |③-④-|
口④③口 |⑤-⑥-|
13
口口口口 |①-②-|
④③口口 |③-④-|
②①⑤口 |⑤---|
口口⑤口 |----|
14
①④②③ |①-②-|
⑤口口口 |--③-|
⑥口口口 |④---|
③②④① |⑤-⑥-|
15
口口口口 |①-②-|
⑥③④⑤ |③-④-|
口口①② |⑤---|
口口口口 |--⑥-|
16
口①⑥⑤ |--①-|
口②口口 |②-③-|
口口口口 |④-⑤-|
口④③⑦ |⑥-⑦-|
17
口⑥口⑥ |①-②-|
③⑥⑥② |③-④-|
①⑥④口 |⑤---|
⑥口⑤口 |⑥---|
18
①⑤①⑤ |①---|
③口口③ |②---|
④口④口 |③-④-|
口②口② |--⑤-|
19
④口④口 |①---|
口②②口 |②-③-|
口①口① |--④-|
③口③口 |----|
20
⑤①⑤① |①---|
③口口③ |②---|
口④口④ |③-④-|
口②口② |--⑤-|
21
口④口④ |①---|
口②②口 |②-③-|
①口①口 |--④-|
口③口③ |----|
22
①⑤①⑤ |①---|
③口口③ |②---|
④口④口 |③-④-|
②口②口 |--⑤-|
23
④口④口 |①---|
口②②口 |②-③-|
口①口① |--④-|
③口③口 |----|
24
⑤①⑤① |①---|
③口口③ |②---|
口④口④ |③-④-|
口②口② |--⑤-|
25
口④口④ |①---|
口②②口 |②-③-|
①口①口 |--④-|
③口③口 |----|
26
⑤④①口 |①---|
口口④⑤ |②---|
②③①口 |③-④-|
口口③② |--⑤-|
27
口④③④ |①---|
④③④口 |②-③-|
口口②① |--④-|
①②口口 |----|
28
口口③④ |①---|
④③口口 |②---|
⑤口②① |③-④-|
①②口⑤ |--⑤-|
29
③②④④ |①---|
④④②③ |②-③-|
口①口口 |--④-|
口口①口 |----|
30
⑤④口口 |①---|
口口④⑤ |②---|
②③①① |③-④-|
①①③② |--⑤-|
31
口④③④ |①---|
④③④口 |②-③-|
口口②① |--④-|
①②口口 |----|
32
口口口口 |①---|
⑤④④⑤ |②---|
②口口① |③-④-|
①③③② |--⑤-|
33
①①①① |①---|
口口③口 |--②-|
口口口口 |----|
②口口② |--③-|
34
口⑤②口 |①-②-|
口③口口 |--③-|
⑥④①口 |④-⑤-|
口口口口 |--⑥-|
35
口口口④ |--①-|
口口④③ |②---|
口④①② |③---|
④③口口 |④---|
36
⑤口①口 |①---|
口口口口 |②-③-|
口口③口 |--④-|
口④②口 |--⑤-|
37
口④④口 |--①-|
口③口口 |②---|
②口③口 |③---|
①④④口 |④---|
38
口口口⑥ |①-②-|
④口口② |--③-|
⑤口口① |④-⑤-|
③口口口 |--⑥-|
39
①②口口 |--①-|
口口口口 |②---|
口口③口 |③---|
口口④口 |--④-|
40
口口②口 |①---②-|
口口口③ |--③---|
口口④① |④---|
口⑤口口 |--⑤-|
41
口②口口 |①---②-|
③口口口 |--③---|
①④口口 |④---|
口口口口 |----|
42
④口口口 |①---|
口①②口 |②---|
口③③口 |③---|
口②①④ |--④-|
43
口口③④ |--①-|
②口④① |②---|
①④口② |③---|
④③口口 |④---|
44
④口口口 |----|
口口口口 |①---|
口口②③ |②-③-|
口口①口 |--④-|
45
口④④口 |--①-|
口③口口 |--②-|
②口③口 |③---|
①④④口 |④---|
46
口④口① |----|
口③②口 |①---|
口②③口 |②---|
①口④口 |③-④-|
47
①⑤口口 |--①-|
③口④② |--②-|
②④口③ |③---|
口口⑤① |④-⑤-|
48
口口②① |--①-|
口口口③ |②-③-|
③口口口 |----|
①②口口 |----|
49
口②口口 |①---|
①③①口 |②-③-|
口口口口 |--④-|
④口④口 |----|
50
口口口口 |①---|
口口口② |②---|
口口①口 |----|
口②口① |----|
51
口口口③ |--①-|
口①④口 |--②-|
口④②口 |③---|
③口口② |④---|
52
口①口口 |①---|
①口口口 |②---|
口口口② |----|
口口②口 |----|
53
①口口③ |--①-|
口口②口 |--②-|
口②口② |③---|
③口②口 |----|
54
②口口口 |①---|
口口口① |②---|
②口口口 |----|
口口口① |----|
55
④口口③ |--①-|
口口⑤② |②-③-|
④口口① |④---|
口口⑤口 |⑤---|
56
口口口口 |①---|
①口口口 |②---|
口②②② |----|
①口口口 |----|
57
①③口② |----|
口③口口 |①---|
口口③口 |②---|
口②③① |③---|
58
口口口口 |----|
口口口口 |----|
口口口口 |----|
口口口口 |----|
59
口口口口 |----|
口口口口 |----|
口口口口 |----|
口口口口 |----|
60
口口口口 |①---|
口⑦④口 |②-③-|
口⑥③口 |④-⑤-|
①⑤②① |⑥-⑦-|
61
②口口① |①②③④|
④口口③ |⑤⑥⑦⑧|
⑥口⑨⑤ |⑨---|
⑧口⑨⑦ |----|
62
①①①① |①---|
②①①③ |②---|
③口口② |③---|
④⑤④⑤ |④-⑤-|
63
口口口口 |--①-|
③②①③ |--②-|
口①②口 |----|
口口口口 |③---|
64
②⑤口① |①---|
⑤口口口 |②---|
②③④① |③-④-|
口④③口 |--⑤-|
65
口口口① |--①-|
口②口② |--②-|
③口③① |----|
口口口口 |③---|
66
①①⑤② |①---|
③④口口 |②---|
口④⑤② |③-④-|
③口①① |--⑤-|
67
口②口② |--①-|
口口③① |--②-|
口口口口 |----|
口①口③ |③---|
68
①口②③ |①---|
口①④⑤ |②---|
②④⑤口 |③---|
③⑤口口 |④-⑤-|
69
②②口口 |--①-|
③②口口 |----|
④口口① |②③④⑤|
⑤口①① |----|
70
③④①① |①---|
口口②① |②---|
口④口口 |③-④-|
⑤②③⑤ |--⑤-|
71
口口口③ |--①-|
①②口口 |--②-|
口口①③ |----|
口②口口 |③---|
72
①①⑤口 |①---|
③④②口 |②---|
口②④口 |③-④-|
⑤③①① |--⑤-|
73
③①口口 |--①-|
口口口② |--②-|
②口口③ |----|
口口①口 |③---|
74
⑤③①① |①-②-|
口口②④ |--③-|
④②⑤口 |--④-|
①①③口 |--⑤-|
75
口③②口 |--①-|
口①口口 |--②-|
口③口口 |----|
口②口① |③---|
76
口④口① |①---|
②口口① |②---|
②口口③ |③---|
口⑤口口 |④-⑤-|
77
口口②② |--①-|
口②①③ |----|
口口①④ |②③④⑤|
口口口⑤ |----|
78
①③口口 |①-②-|
①⑦⑤口 |③-④-|
①④⑧口 |⑤-⑥-|
口口②⑥ |⑦-⑧-|
79
②③口① |--①-|
②口口口 |--②-|
①口口口 |----|
口口③口 |③---|
80
口⑦①④ |①-②-|
口③①口 |③-④-|
⑤①⑥② |⑤-⑥-|
口①⑧口 |⑦-⑧-|
81
口口①口 |--①-|
口②口② |--②-|
口③口③ |----|
①口口口 |③---|
82
①①⑦② |①-②-|
口口④⑥ |③-④-|
③口⑦口 |⑤-⑥-|
⑤口①① |--⑦-|
83
口②口② |--①-|
①口③口 |--②-|
口口口口 |----|
口口①③ |③---|
84
①口②③ |①---|
口①④⑤ |②---|
②④⑤口 |③---|
③⑤口口 |④-⑤-|
85
②②口口 |--①-|
③②口口 |----|
④口口① |②③④⑤|
⑤口①① |----|
86
口⑤①① |①-②-|
口⑦④① |③-④-|
⑧③口口 |⑤-⑥-|
⑥口②口 |⑦-⑧-|
87
①口③② |--①-|
口口口② |--②-|
口口口① |----|
口③口口 |③---|
88
④①⑦口 |①-②-|
口①③口 |③-④-|
②⑥口⑤ |⑤-⑥-|
口⑧口口 |⑦-⑧-|
89
口①口口 |--①-|
②口②口 |--②-|
③口③口 |----|
口口口① |③---|
90
②⑦①① |①-②-|
⑥④口口 |③-④-|
口⑦口③ |⑤-⑥-|
①①口⑤ |--⑦-|
91
口口③口 |--①-|
口②①口 |--②-|
口口③口 |----|
②①口口 |③---|
92
口④口① |①---|
②口口① |②---|
②口口③ |③---|
口⑤口③ |④-⑤-|
93
口口②② |--①-|
口②①③ |----|
口口①④ |②③④⑤|
⑧⑦⑥⑤ |⑥⑦⑧-|
94
②①口口 |①-②-|
口④③口 |--③-|
口口口口 |----|
口口口口 |--④-|
95
口口②口 |--①-|
口口口① |--②-|
④口口③ |--③-|
④口⑤④ |④-⑤-|
96
口③④③ |①-②-|
口口②④ |--③-|
口口①口 |----|
口口口口 |--④-|
97
口口口口 |--①-|
口①②口 |--②-|
①口③② |--③-|
口⑤④口 |④-⑤-|
98
③口③口 |①-②-|
口②④口 |--③-|
口①口口 |----|
口口口口 |--④-|
99
口②口口 |--①-|
①③口④ |--②-|
口口⑤口 |--③-|
口口口口 |④-⑤-|
100
④④④④ |①-②-|
④④④④ |--③-|
①④④口 |----|
③③②② |--④-|


不确定度: 0

最終更新:2012年11月14日 15:47