ファンタジー
世界の終わり

BASIC

Level: 3
BPM: 180
Notes: 255

1
口口口口 |----|
口口口口 |----|
口口口口 |----|
口口口口 |----|
2
口口③口 |--①-|
口②口口 |----|
口①口口 |②---|
口口口口 |③---|
3
口③口口 |--①-|
口口②口 |----|
口口①口 |②---|
口口口口 |③---|
4
①口②③ |--①-|
口口口口 |----|
口口口口 |②---|
口口口口 |③---|
5
口③③口 |①---|
口口口口 |--②-|
口口②① |----|
口口口口 |③---|
6
口口③口 |--①-|
口②口口 |----|
口①口口 |②---|
口口口口 |③---|
7
口③口口 |--①-|
口口②口 |----|
口口①口 |②---|
口口口口 |③---|
8
口③③口 |--①-|
口口②口 |----|
口①口口 |②---|
口口口口 |③---|
9
口口口口 |----|
口口口口 |----|
口口口口 |----|
口口口口 |----|
10
口口口口 |①---|
口口口口 |②---|
口②③④ |--③-|
口①口口 |--④-|
11
口口③口 |--①-|
口口②口 |----|
口口口口 |--②-|
口口口① |--③-|
12
口口口① |----|
③②口口 |①---|
口口口口 |--②-|
口口口口 |--③-|
13
①口口口 |--①-|
口口口口 |----|
口口口口 |----|
口口口口 |----|
14
口口口口 |①---|
口口口口 |②---|
口②③④ |--③-|
口①口口 |--④-|
15
口口③口 |--①-|
口口②口 |----|
口口口口 |--②-|
口口口① |--③-|
16
口口口① |----|
③②口口 |①---|
口口口口 |--②-|
口口口口 |--③-|
17
口口口口 |----|
口口口口 |----|
口口口口 |----|
口口口口 |----|
18
口口口口 |----|
③口口口 |①---|
②口口口 |②---|
①口口口 |③---|
19
口口口口 |①---|
口①④口 |--②-|
口口③口 |--③-|
口口②口 |--④-|
20
口口口口 |--①-|
口③口口 |----|
②口口口 |②---|
口①口口 |③---|
21
口口①口 |①---|
口口口② |②---|
口口口③ |----|
口口口口 |③---|
22
口口口口 |----|
口口口口 |①---|
③②口口 |②---|
口①口口 |③---|
23
口②口口 |①---|
①口③口 |②---|
口口口口 |--③-|
口口口口 |----|
24
口口口口 |--①-|
口口口① |----|
口口②口 |②---|
口口③口 |③---|
25
口口口口 |①---|
口③口口 |--②-|
②口口口 |----|
口①口口 |③---|
26
口①口口 |--①-|
口口口② |----|
口口口口 |--②-|
口口口口 |----|
27
口口口口 |①---|
口口口口 |--②-|
口①口口 |----|
口③口② |③---|
28
口口口口 |①---|
口②③口 |②---|
①口④口 |③---|
口口口口 |④---|
29
口口口口 |①---|
口②③口 |--②-|
口口口口 |----|
口①口口 |③---|
30
口口口口 |----|
口口口口 |①---|
①口口口 |②---|
口②③口 |③---|
31
①口口口 |①--②|
口③口口 |--③-|
口口②口 |-④--|
口口口④ |----|
32
口口口口 |--①-|
口口②口 |----|
口③口① |②---|
口口口口 |③---|
33
口口口口 |①---|
①②③口 |--②-|
口口口口 |----|
口口口口 |③---|
34
口④口口 |①---|
口③口口 |--②-|
口②口口 |--③-|
①口口口 |--④-|
35
口口口① |--①-|
口口③② |----|
口口口口 |②---|
口口口口 |③---|
36
口口口口 |①---|
口口口口 |--②-|
②口①口
口口口口

口口口口
口③口口
口口④口 |--③-|
口口口口 |--④-|
37
口口口口 |----|
口口②① |----|
口口口口 |①---|
口口口口 |②---|
38
口口口口 |①---|
口①口口 |--②-|
②口口口 |----|
口口口口 |----|
39
口口口口 |①---|
口口②口 |----|
口①③口 |②---|
口口口口 |③---|
40
口口口口 |①---|
口口口口 |----|
口口口③ |②---|
口口①② |③---|
41
口口口口 |①---|
③口②口 |--②-|
口口口口 |----|
口①口口 |③---|
42
口④口口 |①---|
口③口口 |--②-|
口②口口 |--③-|
①口口口 |--④-|
43
口口口① |--①-|
口口③② |----|
口口口口 |②---|
口口口口 |③---|
44
口口口口 |①---|
口口口口 |--②-|
②口①口
口口口口

口口口口
口③口口
口口④口 |--③-|
口口口口 |--④-|
45
①②口口 |----|
口口口口 |----|
口口口口 |①---|
口口口口 |②---|
46
口口口口 |①---|
口口①口 |--②-|
口口口② |----|
口口口口 |----|
47
口口口口 |①---|
③口口口 |----|
②口口口 |②---|
①口口口 |③---|
48
口①口口 |①---|
口②口口 |----|
口口口口 |②---|
口口口口 |----|
49
口②②口 |①---|
口口①口 |----|
口口口口 |②---|
口口口口 |----|
50
口口③口 |--①-|
口②口口 |----|
口①口口 |②---|
口口口口 |③---|
51
口③口口 |--①-|
口口②口 |----|
口口①口 |②---|
口口口口 |③---|
52
①口②③ |--①-|
口口口口 |----|
口口口口 |②---|
口口口口 |③---|
53
口③③口 |①---|
口口口口 |--②-|
口口②① |----|
口口口口 |③---|
54
口口③口 |--①-|
口②口口 |----|
口①口口 |②---|
口口口口 |③---|
55
口③口口 |--①-|
口口②口 |----|
口口①口 |②---|
口口口口 |③---|
56
口③③口 |--①-|
口口②口 |----|
口①口口 |②---|
口口口口 |③---|
57
口③③口 |①---|
口口口口 |--②-|
口口②① |----|
口口口口 |③---|
58
口口③口 |--①-|
口②口口 |----|
口①口口 |②---|
口口口口 |③---|
59
口③口口 |--①-|
口口②口 |----|
口口①口 |②---|
口口口口 |③---|
60
①口②③ |--①-|
口口口口 |----|
口口口口 |②---|
口口口口 |③---|
61
口③③口 |①---|
口口口口 |--②-|
口口②① |----|
口口口口 |③---|
62
口口③口 |--①-|
口②口口 |----|
口①口口 |②---|
口口口口 |③---|
63
口③口口 |--①-|
口口②口 |----|
口口①口 |②---|
口口口口 |③---|
64
口③③口 |--①-|
口口②口 |----|
口①口口 |②---|
口口口口 |③---|
65
口③③口 |①---|
口口口口 |--②-|
口口②① |----|
口口口口 |③---|
66
口口口口 |①---|
口口口口 |----|
②①②① |②---|
口口口口 |----|
67
口口口口 |①---|
①②①② |----|
口口口口 |②---|
口口口口 |----|
68
口口口口 |①---|
口口口口 |----|
②①②① |②---|
口口口口 |----|
69
口口口口 |①---|
①②①② |----|
口口口口 |②---|
口口口口 |----|
70
口口口口 |①---|
口②口口 |----|
口口口口 |②---|
口①口口 |----|
71
口口口口 |①---|
口口口① |----|
口口口口 |②---|
口口口② |----|
72
口口④口 |①---|
口③口口 |②---|
②口口口 |③---|
口①口口 |④---|
73
口口口口 |①---|
口②口① |----|
口口口口 |②---|
口口口口 |----|
74
口口口口 |①---|
口口口口 |----|
口口口口 |②---|
②①②① |----|
75
口口口口 |①---|
口口口口 |----|
②①②① |②---|
口口口口 |----|
76
口口口口 |①---|
②①②① |----|
口口口口 |②---|
口口口口 |----|
77
②①②① |①---|
口口口口 |----|
口口口口 |②---|
口口口口 |----|
78
口口口口 |①---|
②①②① |----|
口口口口 |②---|
口口口口 |----|
79
口口口口 |①---|
口口口口 |----|
②①②① |②---|
口口口口 |----|
80
口口口口 |①---|
口④口口 |②---|
口③口口 |③---|
①②口口 |④---|
81
口口②口 |①---|
口口①③ |②---|
口口④口 |③---|
口口口口 |④---|
82
口口口口 |①---|
口①①口 |----|
口口口口 |----|
口口口口 |----|


不确定度: 0

最終更新:2012年11月14日 15:47