ファンタジー
世界の終わり

EXTREME

Level: 8
BPM: 180
Notes: 683

1
口口口口 |----|
口口口口 |----|
口口口口 |----|
口口口口 |----|
2
口②口口 |--①-|
①口③口 |--②-|
口⑥口④ |③-④-|
①口⑤① |⑤-⑥-|
3
口口②口 |--①-|
口③口① |--②-|
④口⑥口 |③-④-|
①⑤口① |⑤-⑥-|
4
②口口② |--①-|
①④④① |--②-|
③口口③ |③---|
①④④① |④---|
5
③口口③ |①---|
②④④② |②-③-|
⑤①①⑤ |--④-|
①④④① |⑤---|
6
口②口口 |--①-|
①口③口 |--②-|
口⑥口④ |③-④-|
①口⑤① |⑤-⑥-|
7
口口②口 |--①-|
口③口① |--②-|
④口⑥口 |③-④-|
①⑤口① |⑤-⑥-|
8
④②④② |--①-|
②③②③ |--②-|
④①④① |③---|
①口①口 |④---|
9
口口口口 |----|
口⑤口④ |----|
口口③口 |①-②③|
口②口① |④-⑤-|
10
①口①口 |①---|
口口口口 |②---|
口②口② |--③-|
③④③④ |--④-|
11
③②③② |--①-|
口口口口 |----|
④①④① |②-③-|
口口口口 |--④-|
12
口口口口 |----|
口口口口 |①---|
口①口① |--②-|
②③②③ |--③-|
13
②口②口 |--①-|
口口口口 |----|
①口①口 |②---|
口口口口 |----|
14
口①口① |①---|
口口口口 |②---|
②口②口 |--③-|
③④③④ |--④-|
15
③②③② |--①-|
口口口口 |----|
④①④① |②-③-|
口口口口 |--④-|
16
口口口口 |----|
口口口口 |①---|
口①口① |--②-|
③②③② |--③-|
17
口②口② |--①-|
①口①口 |----|
口口口口 |②---|
口口口口 |----|
18
④口④口 |①---|
①①①① |②---|
口③口③ |③---|
②口②口 |④---|
19
⑤口⑤口 |①-②-|
口④口④ |--③-|
③口③口 |--④-|
②①②① |--⑤-|
20
⑦⑥口口 |--①-|
口⑤④口 |②-③-|
口口③② |④-⑤-|
口口口① |⑥-⑦-|
21
口口③② |①---|
①口口口 |②-③-|
口③口口
口②口口

口口口口
⑥口口口
⑤口口口 |--④-|
④口口口 |⑤-⑥-|
22
口②③口 |----|
口③②① |①---|
③口①② |②---|
口①口口 |③---|
23
③口口③ |①---|
①口口② |②-③-|
口①②口 |--④-|
④②①④ |----|
24
口④⑥口 |--①-|
②③⑤口 |②-③-|
①口口口 |④-⑤-|
口口口口 |⑥---|
25
口口口① |①---|
口②口口 |②-③-|
口③⑥② |--④-|
④⑤口③ |⑤-⑥-|
26
④⑤⑥口 |--①-|
口③②① |②-③-|
口口口口 |--④-|
口口口口 |⑤-⑥-|
27
口口口口 |①-②-|
④③②① |③-④-|
口口口口 |--⑤-|
⑤⑥⑦口 |⑥-⑦-|
28
④口口口 |①-②-|
⑤口口口 |③---|
⑥③②① |④-⑤-|
口口口⑦ |⑥-⑦-|
29
口②③④ |①---|
⑥口口⑤ |②-③-|
⑤口口⑥ |--④-|
④口①口 |⑤-⑥-|
30
口口口口 |----|
③②口口 |①---|
③②②口 |②---|
口①①口 |③---|
31
③③③② |①--②|
④口②① |--③-|
④口口① |-④--|
口④④① |----|
32
③口口④ |--①-|
⑥③④⑥ |②-③-|
口②①口 |④---|
②⑤⑤① |⑤-⑥-|
33
⑤口口⑤ |①---|
口④④口 |②-③-|
①③③① |--④-|
②口口② |⑤---|
34
⑤口口⑤ |①---|
①口口口 |②-③-|
口②③口 |--④-|
④口口④ |--⑤-|
35
口口口口 |--①-|
③②口① |--②-|
④⑤⑥口 |③-④-|
口口口口 |⑤-⑥-|
36
口②②口 |①---|
口⑤⑤口 |②-③-|
口口口① |--④-|
④③③④ |--⑤-|
37
口口口口 |----|
②口口② |----|
口口口口 |①---|
①口口① |②---|
38
①②②① |①---|
④③③④ |②-③-|
口口口口 |----|
口口口口 |--④-|
39
口③③口 |①---|
口口口口 |----|
①口口① |②---|
②口口② |③---|
40
口口口口 |①---|
口②②口 |----|
口①①口 |②---|
口③③口 |③---|
41
口口口口 |①---|
③口口口 |--②-|
口口②口 |----|
①口口口 |③---|
42
⑤口口⑤ |①---|
口口口① |②-③-|
口③②口 |--④-|
④口口④ |--⑤-|
43
口口口口 |--①-|
①口②③ |--②-|
口⑥⑤④ |③-④-|
口口口口 |⑤-⑥-|
44
口②②口 |①---|
口⑤⑤口 |②-③-|
①口口口 |--④-|
④③③④ |--⑤-|
45
口口口口 |----|
②口口② |----|
口口口口 |①---|
①口口① |②---|
46
①口口① |①---|
口②②口 |②-③-|
口③③口 |----|
④口口④ |--④-|
47
口口口口 |①---|
②口②口 |----|
①口口① |②---|
③口③口 |③---|
48
口②口口 |①---|
②①②口 |----|
①②①口 |②---|
口①口口 |----|
49
口口①口 |①---|
口①②① |----|
口②①② |②---|
口口②口 |----|
50
口②口口 |--①-|
①口③口 |--②-|
口⑥口④ |③-④-|
①口⑤① |⑤-⑥-|
51
口口②口 |--①-|
口③口① |--②-|
④口⑥口 |③-④-|
①⑤口① |⑤-⑥-|
52
②口口② |--①-|
①④④① |--②-|
③口口③ |③---|
①④④① |④---|
53
③口口③ |①---|
②④④② |②-③-|
⑤①①⑤ |--④-|
①④④① |⑤---|
54
口②口口 |--①-|
①口③口 |--②-|
口⑥口④ |③-④-|
①口⑤① |⑤-⑥-|
55
口口②口 |--①-|
口③口① |--②-|
④口⑥口 |③-④-|
①⑤口① |⑤-⑥-|
56
④②④② |--①-|
②③②③ |--②-|
④①④① |③---|
①口①口 |④---|
57
⑤口口⑤ |①---|
口③③口 |②-③-|
口④④口 |--④-|
②①①② |⑤---|
58
口②口口 |--①-|
①口③口 |--②-|
口⑥口④ |③-④-|
①口⑤① |⑤-⑥-|
59
口口②口 |--①-|
口③口① |--②-|
④口⑥口 |③-④-|
①⑤口① |⑤-⑥-|
60
②口口② |--①-|
①④④① |--②-|
③口口③ |③---|
①④④① |④---|
61
③口口③ |①---|
②④④② |②-③-|
⑤①①⑤ |--④-|
①④④① |⑤---|
62
口②口口 |--①-|
①口③口 |--②-|
口⑥口④ |③-④-|
①口⑤① |⑤-⑥-|
63
口口②口 |--①-|
口③口① |--②-|
④口⑥口 |③-④-|
①⑤口① |⑤-⑥-|
64
②口口② |--①-|
①④④① |--②-|
③口口③ |③---|
①④④① |④---|
65
③口口③ |①---|
②④④② |②-③-|
⑤①①⑤ |--④-|
①④④① |⑤---|
66
③②①④ |①-②-|
口⑥口口 |③-④-|
⑤口⑥口 |--⑤-|
口⑤口口 |--⑥-|
67
口口①口 |--①-|
③口③① |--②-|
口④口④ |③---|
②口②口 |④---|
68
④①②③ |①-②-|
口口⑥口 |③-④-|
口⑥口⑤ |--⑤-|
口口⑤口 |--⑥-|
69
口①口口 |--①-|
①③口③ |②---|
口口口口 |③---|
口②口② |----|
70
口①⑤① |①-②-|
口④口⑤ |--③-|
③②④② |--④-|
口③口口 |--⑤-|
71
①口口口 |--①-|
②口口口 |②-③-|
③口口⑥ |--④-|
口口④⑤ |⑤-⑥-|
72
口口③② |--①-|
⑤④口口 |②③④⑤|
口口口口
①口口口

口口口口
口口⑦⑥
⑨⑧⑪⑩ |⑥⑦⑧⑨|
⑬⑫口口 |⑩⑪⑫⑬|
73
①②③口 |①-②-|
⑥⑤口④ |③-④-|
⑦口口口 |--⑤-|
口口口口 |⑥-⑦-|
74
①口②口 |①---|
口口①口 |②---|
口②口口
口①口②

⑤④口口
口③口口
⑤口⑤口 |③-④-|
口口口口 |--⑤-|
75
口③②口 |--①-|
口口④① |--②-|
④口口口 |③---|
口①④① |④---|
76
②口口② |①---|
①④⑤⑤ |②---|
口③口② |③-④-|
①⑤口① |--⑤-|
77
①口口口 |--①-|
①口口④ |--②-|
③②①口 |③---|
④口口④ |④---|
78
口口口② |①---|
①口①口 |②---|
口②口②
口口①口

口口口口
口口⑤④
口口③口 |③-④-|
口⑤口⑤ |--⑤-|
79
①口①口 |--①-|
口③口④ |--②-|
②①④口 |③---|
口④口口 |④---|
80
口口口口 |①---|
②口口④ |②---|
口②④口 |③---|
①④②③ |④---|
81
①④②③ |①---|
口②④口 |②---|
②口口④ |③---|
口口口口 |④---|
82
口口口口 |①---|
①口口① |----|
口①①口 |----|
①口口① |----|


不确定度: 0

最終更新:2012年11月14日 15:46