Dough-nut's Town's Map
Plus-Tech Squeeze Box

BASIC

Level: 3
BPM: 136
Notes: 220

1
口口口口 |----|
口口口口 |----|
口口口口 |----|
口口口口 |----|
2
口口口口 |----|
口口口口 |----|
口口口口 |----|
口口口口 |----|
3
③口④口 |①---|
②口口② |②---|
口①①口 |③---|
口口口口 |④---|
4
口口口口 |①---|
口口口① |②---|
口口②口 |----|
口口口口 |----|
5
口③②口 |①---|
口口①口 |②---|
口口口口 |③---|
口口口口 |----|
6
口口①口 |①---|
口③③口 |②---|
口②口口 |③---|
口口口口 |----|
7
③口④口 |①---|
②口口② |②---|
口①①口 |③---|
口口口口 |④---|
8
口口口口 |①---|
口口口① |②---|
口口②口 |----|
口口口口 |----|
9
口口口② |①---|
口口①③ |②---|
口口口口 |③---|
口口口口 |----|
10
口口②口 |①---|
①口口口 |②---|
口③③口 |③---|
口口口口 |----|
11
口口口口 |①---|
口①口口 |②---|
口④口② |③---|
③口口口 |④---|
12
口口口口 |①---|
口口口③ |②---|
口口口④ |③---|
口②①口 |④---|
13
口口口口 |①---|
口口①口 |②---|
口口②口
口口口口

口口口口
口口④口
口口口口 |③---|
③口口口 |④---|
14
口口口口 |①---|
口口口口 |②---|
口③③口 |③---|
②口口① |----|
15
口口口口 |①---|
口④②口 |②---|
口口口口 |③---|
①口口③ |④---|
16
口口口③ |①---|
口口口口 |②---|
①④口② |③---|
口口口口 |④---|
17
口口口口 |①---|
口②口口 |②---|
口④口口 |③---|
①口口③ |④---|
18
口口口③ |①---|
口口②口 |②---|
④口口① |③---|
口口口口 |④---|
19
①①口② |①---|
口口③口 |--②-|
口④口口 |③---|
口口口口 |--④-|
20
口口口口 |①---|
口③③② |②---|
口口口口 |③---|
①口口口 |----|
21
口口口口 |----|
口口口口 |①---|
口①②口 |----|
口口口口 |②---|
22
①口口② |①---|
口口口口 |----|
口口口③ |②---|
口口口口 |③---|
23
口口口② |①---|
口口③口 |--②-|
口④口口 |③---|
口口①① |--④-|
24
口口口口 |①---|
口③③② |②---|
口口口口 |③---|
①口口口 |----|
25
口口口口 |----|
口①口口 |①---|
口③口口 |②---|
口②口口 |③---|
26
③口口③ |①---|
口①②口 |②---|
口口口口 |③---|
口口口口 |----|
27
④口口口 |①---|
③口口口 |②---|
②口口口 |③---|
①口口口 |④---|
28
口口①口 |①---|
口口②口 |②---|
口口③口 |③---|
口口④口 |④---|
29
口口口① |①---|
口口②口 |②---|
口口④口 |③---|
口口口③ |④---|
30
③口口口 |①---|
口④口口 |②---|
口②口口 |③---|
①口口口 |④---|
31
口口口口 |①---|
口②②口 |----|
口③口口 |②---|
口①①口 |③---|
32
口口口口 |①---|
口口口口 |----|
口口口①
口口口口

口口口口
口口口口
口②②③ |②---|
口口口口 |③---|
33
口口口口 |①---|
②口口口 |----|
①口③口 |②---|
口口口口 |③---|
34
口口口口 |①---|
口②口① |②---|
口口④口 |③---|
口口③口 |④---|
35
口①①口 |①---|
口口口口 |----|
口口口口 |----|
口口口口 |----|
36
口口口口 |----|
口口口口 |----|
口口口口 |----|
口口口口 |----|
37
口口口口 |----|
口口口口 |----|
口口口口 |----|
口口口口 |----|
38
口口口口 |----|
口口口口 |----|
口口口口 |----|
口口口口 |----|
39
口口口① |①---|
口口①口 |----|
口口口口 |----|
口口口口 |----|
40
①口口口 |①---|
口①口口 |----|
口口口口 |----|
口口口口 |----|
41
口口口口 |①---|
口口口口 |----|
口口①口 |----|
口口口① |----|
42
口口口口 |①---|
口口口口 |----|
口①口口 |----|
①口口口 |----|
43
③口④口 |①---|
②口口② |②---|
口①①口 |③---|
口口口口 |④---|
44
口口口口 |①---|
口口口① |②---|
口口②口 |----|
口口口口 |----|
45
口③②口 |①---|
口口①口 |②---|
口口口口 |③---|
口口口口 |----|
46
口口①口 |①---|
口③③口 |②---|
口②口口 |③---|
口口口口 |----|
47
③口④口 |①---|
②口口② |②---|
口①①口 |③---|
口口口口 |④---|
48
口口口口 |①---|
口口口① |②---|
口口②口 |----|
口口口口 |----|
49
口口口② |①---|
口口①③ |②---|
口口口口 |③---|
口口口口 |----|
50
口口②口 |①---|
①口口口 |②---|
口③③口 |③---|
口口口口 |----|
51
口③①口 |①---|
口④②口 |②---|
口口口口 |③---|
口口口口 |④---|
52
口口口口 |①---|
口口口口 |----|
口①①口 |----|
口口口口 |----|
53
口口口口 |①---|
口口①口 |②---|
口②口口 |----|
口口口口 |----|
54
口口口口 |①---|
口③③口 |②---|
口口口口 |③---|
②口口① |----|
55
④口口口 |①---|
③口口口 |②---|
②口口口 |③---|
①口口口 |④---|
56
口②②口 |①---|
口①口口 |②---|
口口口口 |----|
口口口口 |----|
57
口口口口 |①---|
口口口口 |②---|
口②②口 |----|
口口①口 |----|
58
口口口口 |①---|
口②②口 |②---|
③①口口 |----|
口口口口 |③---|
59
①①口② |①---|
口口③口 |--②-|
口④口口 |③---|
口口口口 |--④-|
60
口口口口 |①---|
口③③② |②---|
口口口口 |③---|
①口口口 |----|
61
口口口口 |----|
口口口口 |①---|
口①②口 |----|
口口口口 |②---|
62
①口口② |①---|
口口口口 |----|
口口口③ |②---|
口口口口 |③---|
63
口口口② |①---|
口口③口 |--②-|
口④口口 |③---|
口口①① |--④-|
64
口口口口 |①---|
口③③② |②---|
口口口口 |③---|
①口口口 |----|
65
口口口口 |----|
口①口口 |①---|
口③口口 |②---|
口②口口 |③---|
66
③口口③ |①---|
口①②口 |②---|
口口口口 |③---|
口口口口 |----|


不确定度: 0

最終更新:2012年11月14日 15:46