Dough-nut's Town's Map
Plus-Tech Squeeze Box

ADVANCED

Level: 6
BPM: 136
Notes: 438

1
口口口口 |----|
口口口口 |----|
口口口口 |----|
口口口口 |----|
2
口口口口 |----|
口口口口 |----|
口口口口 |----|
口口口口 |----|
3
③口口⑥ |①---|
②④⑤② |②---|
口①①口 |③-④⑤|
口口口口 |-⑥--|
4
口口口口 |①--②|
①口口① |----|
口口口口
口②②口

口口口口
口口口口
口口口口 |----|
口口③口 |--③-|
5
口⑤③口 |①-②-|
口①口口 |③④-⑤|
口②④口
口口口口

口口口口
⑧口口口
口⑦口口 |----|
口口⑥口 |-⑥⑦⑧|
6
⑤口①⑤ |①---|
口④④口 |②③-④|
口口口口 |⑤---|
②口口③ |----|
7
③口口⑥ |①---|
②④⑤② |②---|
口①①口 |③-④⑤|
口口口口 |-⑥--|
8
口口口口 |①②③④|
①口口③ |----|
口口口口 |----|
口④②口 |----|
9
口口口② |①---|
口口③口 |②--③|
口口口口
口口口①

口口⑨口
口口口⑤
口④口⑥ |④⑤⑥⑦|
⑧口口⑦ |⑧-⑨-|
10
口⑦口⑦ |①②-③|
①口⑥口 |④⑤⑥-|
②口⑤口 |⑦---|
口③④口 |----|
11
⑨⑩⑪口 |①②-③|
口①③⑧ |④-⑤-|
②口⑤④ |⑥⑦-⑧|
⑥⑦口口 |-⑨⑩⑪|
12
⑩⑦口① |①-②③|
⑥⑨⑤口 |④-⑤-|
口口口⑧ |⑥⑦-⑧|
口④③② |-⑨⑩-|
13
⑩口口口 |①-②-|
⑨⑪①② |③④⑤⑥|
⑧口③口 |⑦⑧⑨⑩|
⑦⑥⑤④ |⑪---|
14
④口口② |①-②-|
口口口口 |③-④-|
口⑤⑤口 |⑤---|
③口口① |----|
15
口③⑥口 |①---|
口⑤②口 |②-③-|
口口口口 |④---|
①口口④ |⑤-⑥-|
16
③口口④ |①---|
口口口口 |②-③-|
①⑤⑤② |④---|
口口口口 |⑤---|
17
口④口口 |①-②③|
口⑥③口 |④-⑤⑥|
⑤口口②
①口口口

口口口口
口口口口
口⑨⑧口 |-⑦-⑧|
⑩口口⑦ |⑨-⑩-|
18
口口口口 |①-②-|
口④③口 |③-④-|
②口口①
口口口口

口口口口
⑤口⑧⑤
口⑦口口 |⑤-⑥-|
⑥口口口 |⑦-⑧-|
19
口①①② |①---|
口③③④ |--②-|
口口口口 |③---|
口口口口 |--④-|
20
④口口口 |①-②-|
口⑤⑤口 |③④-⑤|
口①①③ |----|
口口口② |----|
21
口口口口 |--①-|
口⑥③口 |②-③-|
口②⑤口 |--④-|
①口口④ |⑤-⑥-|
22
①②②口 |①---|
③④④③ |----|
口口口口 |②--③|
口口口口 |--④-|
23
口口口② |①---|
口③③④ |--②-|
口口口口 |③---|
口①①口 |--④-|
24
④口口口 |①-②-|
口⑤⑤口 |③④-⑤|
口①①③ |----|
口口口② |----|
25
口⑤④口 |--①-|
③口口⑥ |②-③-|
口⑦②口 |④-⑤-|
①口口口 |⑥-⑦-|
26
口③③口 |①---|
③口口③ |②---|
②口口① |③---|
口②①口 |----|
27
⑦口口⑧ |①-②-|
⑤口口⑥ |③-④-|
③口口④ |⑤-⑥-|
①口口② |⑦-⑧-|
28
口①⑧口 |①-②-|
口⑦②口 |③-④-|
口③⑥口 |⑤-⑥-|
口⑤④口 |⑦-⑧-|
29
③⑦⑤① |①-②-|
口口口口 |③-④-|
④⑧⑥② |⑤-⑥-|
口口口口 |⑦-⑧-|
30
③⑦⑤① |①-②-|
口口口口 |③-④-|
④⑧⑥② |⑤-⑥-|
口口口口 |⑦-⑧-|
31
⑤⑥⑧① |①-②-|
④⑦口⑨ |③-④⑤|
口口口② |⑥---|
③口口口 |⑦-⑧⑨|
32
口口⑤③ |①---|
口④口口 |②---|
口②①口 |③---|
口口口口 |④--⑤|
33
口口口口 |①-②-|
口口口① |③-④-|
④口②口
口③口口

口口口口
口口⑤口
口⑥⑦⑧ |⑤-⑥-|
口口口口 |⑦-⑧-|
34
口口口口 |①-②-|
④③②① |③-④-|
口口口口 |⑤-⑥-|
⑤⑥⑦⑧ |⑦-⑧-|
35
口①①口 |①---|
①口口① |----|
口口口口 |----|
口口口口 |----|
36
口口口口 |----|
口口口口 |----|
口口口口 |----|
口口口口 |----|
37
口口口口 |----|
口口口口 |----|
口口口口 |----|
口口口口 |----|
38
口口口口 |----|
口口口口 |----|
口口口口 |----|
口口口口 |----|
39
口口①① |①---|
口口①① |----|
口口口口 |----|
口口口口 |----|
40
①①口口 |①---|
①①口口 |----|
口口口口 |----|
口口口口 |----|
41
口口口口 |①---|
口口口口 |----|
口口①① |----|
口口①① |----|
42
口口口② |①---|
口口口口 |----|
①①口口 |----|
①①③口 |②-③-|
43
③口口⑥ |①---|
②④⑤② |②---|
口①①口 |③-④⑤|
口口口口 |-⑥--|
44
口口口口 |①--②|
①口口① |----|
口口口口
口②②口

口口口口
口口口口
口口口口 |----|
口口③口 |--③-|
45
口⑤③口 |①-②-|
口①口口 |③④-⑤|
口②④口
口口口口

口口口口
⑧口口口
口⑦口口 |----|
口口⑥口 |-⑥⑦⑧|
46
⑤口①⑤ |①---|
口④④口 |②③-④|
口口口口 |⑤---|
②口口③ |----|
47
③口口⑥ |①---|
②④⑤② |②---|
口①①口 |③-④⑤|
口口口口 |-⑥--|
48
口口口口 |①②③④|
①口口③ |----|
口口口口 |----|
口④②口 |----|
49
口口口② |①---|
口口③口 |②--③|
口口口口
口口口①

口口口口
口口口⑤
口④口⑥ |④⑤⑥⑦|
⑧口口⑦ |⑧---|
50
口口口口 |①②-③|
①口⑤口 |④-⑤-|
②口口口
口③④口

口⑩口⑨
口⑪口⑧
口⑫口⑦ |⑥⑦⑧⑨|
口⑬口⑥ |⑩⑪⑫⑬|
51
①口①口 |①-②-|
③口③⑤ |③-④⑤|
②口②④
口口口口

⑨⑧⑦⑥
口口口口
口口口口 |⑥-⑦-|
口口口口 |⑧-⑨-|
52
口⑥⑤口 |①-②③|
⑦口口④ |④-⑤-|
口②②③ |⑥-⑦-|
①口口① |----|
53
口口口② |①-②-|
口①口口 |③---|
口口③口 |----|
④口口口 |--④-|
54
②口口③ |①-②-|
口口⑤口 |③-④-|
口④口口 |⑤---|
口口口① |----|
55
⑤口口⑥ |①-②-|
③口口④ |③-④-|
⑦口口⑧ |⑤-⑥-|
①口口② |⑦-⑧-|
56
口②②口 |①---|
口口口口 |②---|
口口口口
口①①口

口口口口
口口口口
③口口③ |③---|
④⑤口⑥ |④⑤-⑥|
57
②口口② |①-②-|
口口口口 |③---|
口③③口 |----|
口④①口 |--④-|
58
口②②口 |①---|
口口口口 |②---|
口①口口
口口口口

口口口口
口口⑤口
口④口口 |--③-|
③口口口 |④-⑤-|
59
口①①② |①---|
口③③④ |--②-|
口口口口 |③---|
口口口口 |--④-|
60
④口口口 |①-②-|
口⑤⑤口 |③④-⑤|
口①①③ |----|
口口口② |----|
61
口口口口 |--①-|
口⑥③口 |②-③-|
口②⑤口 |--④-|
①口口④ |⑤-⑥-|
62
①②②口 |①---|
③④④③ |----|
口口口口 |②--③|
口口口口 |--④-|
63
口口口② |①---|
口③③④ |--②-|
口口口口 |③---|
口①①口 |--④-|
64
④口口口 |①-②-|
口⑤⑤口 |③④-⑤|
口①①③ |----|
口口口② |----|
65
口⑤④口 |--①-|
③口口⑥ |②-③-|
口⑦②口 |④-⑤-|
①口口口 |⑥-⑦-|
66
口③③口 |①---|
③口口③ |②---|
②口口① |③---|
口②①口 |----|


不确定度: 0

最終更新:2012年11月14日 15:46