405nm (Ryu☆mix)
Another Infinity

EXTREME

Level: 10
BPM: 177
Notes: 908

1
口口口口 |----|
口口口口 |----|
口口口口 |----|
口口口口 |----|
2
⑤口口⑤ |①---|
口④④口 |----|
口③③① |②-③-|
②口口② |④-⑤-|
3
口口口口 |①---|
①口口① |----|
①口口① |----|
口口口口 |----|
4
③⑪⑭② |①②③④|
⑮⑦⑩⑥ |⑤⑥⑦⑧|
⑨①④⑯ |⑨⑩⑪⑫|
⑤⑬⑧⑫ |⑬⑭⑮⑯|
5
①⑤口④ |①-②-|
口⑤⑤⑤ |③-④-|
⑤②③口 |⑤---|
口口口口 |----|
6
②⑦⑥③ |①-②-|
①⑧⑤④ |③-④-|
口⑦⑥③ |⑤-⑥-|
口口口口 |⑦-⑧-|
7
口口口口 |①-②-|
①⑦④③ |③-④-|
⑧⑥⑤② |⑤-⑥-|
口⑦④③ |⑦-⑧-|
8
②③④③ |①-②-|
①⑥⑤⑥ |③-④-|
口⑦口⑦ |⑤-⑥-|
①口口口 |--⑦-|
9
④口④口 |①-②-|
口口口口 |③-④-|
口口①口
口③②③

口⑤口口
⑦⑥⑦口
⑧口⑧口 |⑤-⑥-|
口口口口 |⑦-⑧-|
10
口⑦⑤④ |①-②-|
口口⑧⑥ |③-④-|
口①口⑦ |⑤-⑥-|
③②③口 |⑦-⑧-|
11
口口⑦口 |①-②-|
③①口⑦ |③-④-|
⑤④②口 |⑤-⑥-|
⑧⑥③口 |⑦-⑧-|
12
②⑭⑪③ |①②③④|
⑥⑩⑦⑮ |⑤⑥⑦⑧|
⑯④①⑨ |⑨⑩⑪⑫|
⑫⑧⑬⑤ |⑬⑭⑮⑯|
13
②⑥⑤① |①-②-|
⑤④④口 |③-④-|
⑥③③⑤ |⑤---|
口⑤口口 |⑥---|
14
口口口口 |①---|
口口口① |----|
口口口口 |----|
口口①口 |----|
15
口口口口 |----|
口口口口 |----|
口口口口 |----|
口口口口 |----|
16
④④⑧⑧ |①-②-|
⑤⑤③③ |③-④-|
⑥⑥②② |⑤-⑥-|
⑦⑦①① |⑦-⑧-|
17
③③⑧⑧ |①-②-|
④④⑦⑦ |③-④-|
⑤⑤②① |⑤-⑥-|
⑥⑥②① |⑦-⑧-|
18
④④⑧⑧ |①-②-|
③③⑦⑦ |③-④-|
⑥⑥①② |⑤-⑥-|
⑤⑤①② |⑦-⑧-|
19
④③⑦⑧ |①-②-|
④③⑦⑧ |③-④-|
⑥⑥②① |⑤-⑥-|
⑤⑤②① |⑦-⑧-|
20
口口口口 |①-②-|
③③口口 |③-④-|
口口②②
④④①①

⑦⑦⑥口
口口⑥口
⑤⑤口口 |⑤-⑥-|
口口⑧⑧ |⑦-⑧-|
21
⑧⑧⑥③ |①-②-|
②②⑥③ |③-④-|
④⑤①① |⑤-⑥-|
④⑤⑦⑦ |⑦-⑧-|
22
口口口④ |①-②-|
①①口④ |③-④-|
③口②②
③口口口

口口⑤口
⑧⑧⑤口
口⑥口口 |⑤-⑥-|
口⑥⑦⑦ |⑦-⑧-|
23
②②④④ |①-②-|
⑦⑦⑧⑧ |③-④-|
③⑤①① |⑤-⑥-|
③⑤⑥⑥ |⑦-⑧-|
24
④③⑥口 |①--②|
⑦口口⑤ |--③-|
②口①① |-④--|
口口口口 |⑤-⑥⑦|
25
⑨口口口 |①--②|
口⑧③⑥ |--③④|
⑤①⑦② |-⑤⑥-|
口④口口 |⑦-⑧⑨|
26
口①口口 |①--②|
⑥⑦⑤口 |--③-|
口②口④ |-④--|
③口①① |⑤-⑥⑦|
27
①口口口 |①--②|
⑧口⑥⑨ |--③④|
④⑦②⑤ |-⑤⑥-|
口③口① |⑦-⑧⑨|
28
口口①口 |①--②|
口②⑥⑤ |--③-|
④⑦②⑤ |-④--|
③③口① |⑤-⑥⑦|
29
①口③② |①--②|
①④口口 |--③④|
口口②口
口口口口

口口口口
⑧口⑦口
⑤口口口 |-⑤⑥-|
口口口⑥ |⑦-⑧-|
30
③⑪⑭② |①②③④|
⑮⑦⑩⑥ |⑤⑥⑦⑧|
⑨①④⑯ |⑨⑩⑪⑫|
⑤⑬⑧⑫ |⑬⑭⑮⑯|
31
①⑤口④ |①-②-|
口⑤⑤⑤ |③-④-|
⑤②③口 |⑤---|
口口口口 |----|
32
⑥⑥口⑧ |①--②|
①⑥⑦④ |③-④-|
⑤①②口 |-⑤--|
③③口口 |⑥-⑦⑧|
33
⑧⑧①口 |①--②|
②⑩口⑦ |③-④⑤|
口④⑥⑨ |-⑥⑦-|
③③⑤口 |⑧-⑨⑩|
34
⑧⑨⑦⑦ |①--②|
口⑦①⑤ |③-④-|
④口⑥口 |⑤⑥--|
口②③③ |⑦-⑧⑨|
35
口口口口 |①--②|
①口⑤口 |③-④⑤|
口②口④
口口③③

口口⑧⑧
⑨⑥口口
⑦口口口 |-⑥⑦-|
口口口口 |⑧-⑨-|
36
口口口口 |①--②|
口口④口 |③-④-|
口②①口
③③口口

⑥⑥口口
口口口口
⑦口⑧⑤ |-⑤--|
口口口口 |⑥-⑦⑧|
37
⑧⑧口口 |①--②|
④①⑥② |③-④⑤|
⑩⑤⑨⑦ |-⑥⑦-|
③③口口 |⑧-⑨⑩|
38
口口口④ |①-②③|
⑧①口④ |④-⑤-|
⑪⑤⑩⑨ |⑥⑦⑧-|
⑥③⑦② |⑨-⑩⑪|
39
⑨口①口 |①--②|
⑧⑤①④ |③-④⑤|
口口口口 |-⑥⑦-|
⑦②⑥③ |⑧-⑨-|
40
口⑧⑤③ |①-②-|
口⑥⑧⑦ |③-④-|
③④①① |⑤-⑥-|
口②⑦口 |⑦-⑧-|
41
⑧口⑤⑤ |①-②-|
⑥口口⑦ |③-④-|
④口⑨③ |⑤-⑥-|
②口口① |⑦-⑧⑨|
42
⑧③⑤⑤ |①-②-|
⑥①③⑥ |③-④-|
④口口⑦ |⑤-⑥-|
②口⑧⑧ |⑦-⑧-|
43
⑧口口⑤ |①-②-|
⑥④③⑦ |③-④-|
④①⑤口 |⑤-⑥-|
②①口口 |⑦-⑧-|
44
口③①口 |①-②-|
口口③口 |③-④-|
④口口①
②口口口

⑧口口⑤
⑥⑤口口
口口⑦⑧ |⑤-⑥-|
口口口⑧ |⑦-⑧-|
45
口⑧⑦口 |①-②-|
口⑥⑤③ |③-④-|
④口口口 |⑤-⑥-|
②①⑤口 |⑦-⑧-|
46
②⑭⑪③ |①②③④|
⑥⑩⑦⑮ |⑤⑥⑦⑧|
⑯④①⑨ |⑨⑩⑪⑫|
⑫⑧⑬⑤ |⑬⑭⑮⑯|
47
④口⑤① |①-②-|
⑤⑤⑤口 |③-④-|
口③②⑤ |⑤---|
口口口口 |----|
48
口①口口 |①-②-|
⑥⑤④① |③-④-|
①⑥⑦口 |--⑤-|
⑥口②③ |⑥-⑦-|
49
③③②① |①-②-|
⑦口⑤⑥ |③-④-|
③口⑧③ |⑤-⑥-|
⑦⑦⑦④ |⑦-⑧-|
50
③⑥②① |①-②-|
⑥③⑥⑤ |③-④-|
口③⑦④ |--⑤-|
口⑥口③ |⑥-⑦-|
51
③⑧③② |①-②-|
⑦③⑦⑥ |③-④-|
③⑦口⑤ |⑤-⑥-|
⑦口①④ |⑦-⑧-|
52
④口③① |①-②-|
口④口口 |③-④-|
⑧口②⑤ |⑤-⑥-|
⑧⑦⑥⑤ |⑦-⑧-|
53
⑦⑦③① |①-②-|
口口⑦⑤ |③-④-|
⑦口②④ |⑤-⑥-|
口口⑥⑧ |⑦-⑧-|
54
口口③① |①-②-|
④②口口 |③-④-|
口口②④
①③口口

口口口⑥
口口口⑤
口口口口 |--⑤-|
口口口口 |--⑥-|
55
①③⑥口 |--①-|
④口②⑤ |--②-|
⑤②口④ |③-④-|
口⑥③① |⑤-⑥-|
56
口口口口 |①--②|
⑥②⑤⑦ |--③-|
口口口口 |-④--|
①口③④ |⑤-⑥⑦|
57
①⑧⑨口 |①--②|
口⑥⑦口 |--③④|
⑤口口④ |-⑤⑥-|
②③口口 |⑦-⑧⑨|
58
⑧口⑥⑥ |①--②|
④⑦⑥① |③-④-|
口②①⑤ |-⑤--|
口口③③ |⑥-⑦⑧|
59
口①⑧⑧ |①--②|
⑦口口② |③-④⑤|
⑨⑥④口 |-⑥⑦-|
口⑤③③ |⑧-⑨-|
60
⑦⑦⑨⑧ |①--②|
⑤①⑦口 |③-④-|
口⑥口④ |⑤⑥--|
③③②口 |⑦-⑧⑨|
61
口口口口 |①--②|
口⑤口① |③-④⑤|
④口②口
③③口口

⑧⑧口口
口口⑥⑨
口口口⑦ |-⑥⑦-|
口口口口 |⑧-⑨-|
62
口口口口 |①--②|
口④口口 |③-④-|
口①②口
口口③③

口口⑥⑥
口口口口
⑤⑧口⑦ |-⑤--|
口口口口 |⑥-⑦⑧|
63
口口口⑨ |①-②③|
⑧⑪①⑦ |④-⑤⑥|
口⑩④口 |⑦⑧⑨-|
⑥③②⑤ |⑩-⑪-|
64
①①⑧⑤ |①-②-|
⑦⑦⑥口 |③-④-|
③⑧④⑤ |⑤-⑥-|
口③②口 |⑦-⑧-|
65
⑤⑤口⑧ |①-②-|
⑧⑨口⑥ |③-④-|
③口口④ |⑤-⑥-|
①⑦口② |⑦-⑧⑨|
66
口口③口 |①-②-|
口口①口 |③-④-|
口③口④
口口口②

⑤口口⑧
口⑦⑧⑥
⑥口⑤口 |⑤-⑥-|
⑦⑧口口 |⑦-⑧-|
67
口③③⑧ |①-②-|
④口口⑥ |③-④-|
口⑤⑤④ |⑤-⑥-|
⑦口①② |⑦-⑧-|
68
①⑦⑤⑧ |①-②-|
⑧①③⑥ |③-④-|
⑦⑤口④ |⑤-⑥-|
口⑧③② |⑦-⑧-|
69
口⑦口⑧ |①-②-|
⑧⑤口⑥ |③-④-|
口口⑤④ |⑤-⑥-|
①口③② |⑦-⑧-|
70
⑥口⑥口 |①-②-|
口⑦口⑦ |③-④-|
⑤②⑤④ |⑤-⑥-|
⑧①⑧③ |⑦-⑧-|
71
③②③② |①---|
③口①口 |②---|
口③③口 |③---|
口①口口 |----|
72
④⑥⑤③ |①-②-|
⑧⑦③③ |③-④-|
②口⑥⑤ |⑤-⑥-|
①⑧⑦① |⑦-⑧-|
73
③口⑤⑦ |①-②-|
口口口⑥ |③-④-|
③⑤⑦④ |⑤-⑥-|
①⑧口② |⑦-⑧-|
74
③⑤⑥口 |①-②-|
③③⑦⑧ |③-④-|
⑤⑥口④ |⑤-⑥-|
①⑦⑧② |⑦-⑧-|
75
④⑤口③ |①-②-|
④口口口 |③-④-|
口口⑤③ |⑤---|
②口⑥① |--⑥-|
76
③⑥⑤② |①-②-|
口③⑥⑤ |③-④-|
①⑧⑦⑥ |⑤-⑥-|
④①⑧⑦ |⑦-⑧-|
77
口口口② |①-②-|
③④口口 |③-④-|
①口口口
③①口口

口⑥⑤口
口口口⑤
⑧口口口 |⑤-⑥-|
口口⑦口 |⑦-⑧-|
78
②⑭⑪③ |①②③④|
⑥⑩⑦⑮ |⑤⑥⑦⑧|
⑯④①⑨ |⑨⑩⑪⑫|
⑫⑧⑬⑤ |⑬⑭⑮⑯|
79
②口口① |①-②-|
③④③口 |③-④-|
口②①⑥ |⑤---|
⑤④口⑤ |⑥---|
80
口口①口 |①---|
口口口① |----|
①①①口 |----|
口口①口 |----|


不确定度: 0

タグ:

+ タグ編集
  • タグ:

このサイトはreCAPTCHAによって保護されており、Googleの プライバシーポリシー利用規約 が適用されます。

最終更新:2012年12月27日 16:39